<?xml version="1.0" standalone="no"?>
<!DOCTYPE svg PUBLIC "-//W3C//DTD SVG 1.1//EN" "http://www.w3.org/Graphics/SVG/1.1/DTD/svg11.dtd" >
<svg xmlns="http://www.w3.org/2000/svg" xmlns:xlink="http://www.w3.org/1999/xlink" version="1.1">
<metadata>
Created by FontForge 20170731 at Fri Oct  9 16:04:32 2015
 By Aleksey,,,
2005 Mike Abbink published by FSI Fonts und Software GmbH
</metadata>
<defs>
<font id="KievitOT-Bold" horiz-adv-x="1138" >
  <font-face 
    font-family="KievitOT-Bold"
    font-weight="700"
    font-stretch="normal"
    units-per-em="2048"
    panose-1="2 0 5 3 5 0 0 2 0 4"
    ascent="1556"
    descent="-492"
    x-height="997"
    cap-height="1364"
    bbox="-389 -512 2574 1880"
    underline-thickness="40"
    underline-position="-311"
    unicode-range="U+000D-FB04"
  />
<missing-glyph horiz-adv-x="1140" 
d="M344 211h453v942h-453v-942zM133 0v1364h875v-1364h-875z" />
    <glyph glyph-name="uniFB00" unicode="ff" horiz-adv-x="1347" 
d="M461 997h325v103q0 63 13 114q-61 47 -158 48q-180 0 -180 -205v-60zM188 0v795h-153v202h153v95q0 180 111 288t301 107q190 0 311 -76q97 88 263 88t245 -47l-63 -205q-57 29 -137 29q-162 0 -162 -197v-82h239v-202h-239v-795h-271v795h-325v-795h-273z" />
    <glyph glyph-name="fi" unicode="fi" horiz-adv-x="1204" 
d="M184 0v795h-149v202h149v101q0 184 119 293t329 109t363 -89l-96 -201q-111 66 -237 66q-205 0 -205 -201v-78h610v-997h-272v795h-338v-795h-273z" />
    <glyph glyph-name="fl" unicode="fl" horiz-adv-x="1226" 
d="M184 0v795h-149v202h149v103q0 190 122 294t362 105q240 0 411 -61v-1438h-272v1253q-53 23 -166 23q-184 0 -184 -201v-78h209v-202h-209v-795h-273z" />
    <glyph glyph-name="uniFB03" unicode="ffi" horiz-adv-x="1798" 
d="M461 997h325v101q0 66 17 114q-70 49 -162 50q-180 0 -180 -205v-60zM188 0v795h-153v202h153v95q0 180 111 288t299 107q188 0 326 -80q118 92 318 92t353 -88l-96 -201q-111 66 -237 66q-205 0 -205 -201v-78h604v-997h-272v795h-332v-795h-271v795h-325v-795h-273z
" />
    <glyph glyph-name="uniFB04" unicode="ffl" horiz-adv-x="1826" 
d="M461 997h325v103q0 66 15 114q-61 47 -160 48q-180 0 -180 -205v-60zM188 0v795h-153v202h153v95q0 180 111 288t303 107q192 0 318 -82q124 94 356 94t403 -61v-1438h-272v1253q-53 23 -166 23q-184 0 -184 -201v-78h217v-202h-217v-795h-271v795h-325v-795h-273z" />
    <glyph glyph-name=".notdef" horiz-adv-x="1140" 
d="M344 211h453v942h-453v-942zM133 0v1364h875v-1364h-875z" />
    <glyph glyph-name=".null" horiz-adv-x="0" 
 />
    <glyph glyph-name=".null" horiz-adv-x="0" 
 />
    <glyph glyph-name="nonmarkingreturn" horiz-adv-x="681" 
 />
    <glyph glyph-name="CR" unicode="&#xd;" horiz-adv-x="397" 
 />
    <glyph glyph-name="space" unicode=" " horiz-adv-x="397" 
 />
    <glyph glyph-name="exclam" unicode="!" horiz-adv-x="622" 
d="M201 461l-49 903h319l-51 -903h-219zM311 -20q-74 0 -124 50t-50 119t50 117t124 49q74 0 123 -49q49 -50 49 -118t-49 -118t-123 -50z" />
    <glyph glyph-name="quotedbl" unicode="&#x22;" horiz-adv-x="788" 
d="M475 864l-31 500h271l-58 -500h-182zM131 864l-57 500h270l-29 -500h-184z" />
    <glyph glyph-name="numbersign" unicode="#" horiz-adv-x="1077" 
d="M444 627h174l27 182h-174zM193 180l38 256h-182l33 197h180l25 172h-181l31 196h178l39 248h189l-39 -248h164l39 248h188l-39 -248h170l-33 -196h-166l-24 -172h168l-33 -197h-166l-37 -256h-188l37 256h-164l-39 -256h-188z" />
    <glyph glyph-name="dollar" unicode="$" horiz-adv-x="870" 
d="M328 -252v232q-168 18 -275 92l92 192q127 -86 263 -86q172 0 172 90q0 37 -35 60q-35 22 -120 52t-126 48q-111 53 -167 119q-56 67 -56 175t66 184t186 102v219h227v-209q147 -16 238 -78l-97 -186q-94 66 -234 66t-140 -89q0 -40 49 -65q49 -26 102 -44
q193 -66 274 -141t81 -193t-72 -197q-70 -79 -201 -103v-240h-227z" />
    <glyph glyph-name="percent" unicode="%" horiz-adv-x="1779" 
d="M479 0l600 999h226l-598 -999h-228zM1384 141q115 0 115 152q0 67 -29 111t-90 45q-119 0 -118 -150q0 -66 30 -112t92 -46zM1379 -25q-165 -1 -256 91t-91 225t93 228t259 95t256 -90t90 -224t-92 -230q-94 -96 -259 -95zM401 549q117 0 117 151q0 68 -29 112t-90 44
q-119 0 -118 -147q-1 -68 29 -114t91 -46zM397 383q-166 0 -257 92t-91 224q0 131 93 227t260 96t257 -90q91 -90 91 -223t-94 -229t-259 -97z" />
    <glyph glyph-name="ampersand" unicode="&#x26;" horiz-adv-x="1361" 
d="M348 375q0 -83 60 -135t170 -52t204 72l-299 330q-135 -92 -135 -215zM610 1196q-60 0 -99 -36q-38 -36 -38 -95q1 -88 107 -207q162 100 161 213q0 53 -35 89q-36 36 -96 36zM535 -25q-217 -1 -343 105t-126 274q0 133 67 224q68 90 213 170q-141 166 -141 314
q-1 148 113 236q114 90 291 90t281 -84t103 -206t-71 -206t-220 -171l250 -275q61 115 86 246l234 -41q-37 -215 -166 -385l237 -266h-331l-88 98q-172 -123 -389 -123z" />
    <glyph glyph-name="quotesingle" unicode="'" horiz-adv-x="432" 
d="M123 864l-45 500h276l-45 -500h-186z" />
    <glyph glyph-name="parenleft" unicode="(" horiz-adv-x="710" 
d="M84 578q0 285 109 518t258 379h258q-131 -145 -231 -371t-101 -520q0 -537 332 -928h-258q-367 397 -367 922z" />
    <glyph glyph-name="parenright" unicode=")" horiz-adv-x="712" 
d="M336 564q0 525 -334 911h260q154 -159 260 -389t106 -520t-108 -523q-109 -233 -258 -387h-260q334 383 334 908z" />
    <glyph glyph-name="asterisk" unicode="*" horiz-adv-x="1009" 
d="M354 584l-178 125l178 211l-266 75l72 195l246 -96l-13 270h225l-14 -270l246 96l74 -195l-269 -75l181 -211l-181 -125l-149 233z" />
    <glyph glyph-name="plus" unicode="+" horiz-adv-x="1146" 
d="M459 53v381h-375v209h375v369h233v-369h371v-209h-371v-381h-233z" />
    <glyph glyph-name="comma" unicode="," horiz-adv-x="581" 
d="M231 -78q0 53 -60 118q-60 66 -60 134t48 112q47 44 123 44t134 -62t57 -164q0 -201 -151 -401h-175q84 131 84 219z" />
    <glyph glyph-name="hyphen" unicode="-" horiz-adv-x="675" 
d="M104 467v221h467v-221h-467z" />
    <glyph glyph-name="period" unicode="." horiz-adv-x="581" 
d="M291 -20q-76 0 -129 51t-53 125t53 124t129 50t128 -50t52 -124t-52 -125t-128 -51z" />
    <glyph glyph-name="slash" unicode="/" horiz-adv-x="921" 
d="M55 -184l582 1609h264l-582 -1609h-264z" />
    <glyph glyph-name="zero" unicode="0" horiz-adv-x="1198" 
d="M603 193q118 -1 180 79q63 80 63 224t-64 227q-64 82 -182 82q-119 0 -181 -79q-63 -79 -63 -223t64 -227t183 -83zM599 -25q-259 0 -396 156t-137 365q0 210 139 368t399 158t396 -154t136 -364t-138 -369q-140 -160 -399 -160z" />
    <glyph glyph-name="one" unicode="1" horiz-adv-x="753" 
d="M334 0v762l-238 -72l-55 215l354 92h209v-997h-270z" />
    <glyph glyph-name="two" unicode="2" horiz-adv-x="1042" 
d="M43 0v123q297 213 403 311q158 150 158 244q0 129 -162 129q-133 0 -239 -107l-133 170q162 154 413 154q190 0 301 -73t111 -222t-145 -294q-111 -110 -279 -226q49 8 131 8h377v-217h-936z" />
    <glyph glyph-name="three" unicode="3" horiz-adv-x="937" 
d="M287 -385q-137 0 -213 14l41 219q47 -18 171 -18t215 58q89 58 89 165q0 205 -348 205v197q115 2 213 64t98 155q0 131 -164 131q-117 0 -217 -90l-127 172q160 135 399 135q184 0 288 -85t104 -213t-84 -213t-189 -114v-2q127 -14 222 -104t96 -234q0 -203 -165 -323
t-429 -119z" />
    <glyph glyph-name="four" unicode="4" horiz-adv-x="1234" 
d="M684 209v436h-4l-340 -436h344zM684 -362v362h-637v172l668 825h239v-788h213v-209h-213v-362h-270z" />
    <glyph glyph-name="five" unicode="5" horiz-adv-x="931" 
d="M258 -385q-100 0 -197 20l52 218q68 -20 147 -21q135 0 224 66t89 186q0 242 -311 242q-90 0 -143 -13l43 684h674v-209h-428l-17 -251q223 -4 348 -123t125 -327t-162 -340t-444 -132z" />
    <glyph glyph-name="six" unicode="6" horiz-adv-x="1116" 
d="M578 184q86 0 137 62t51 155q0 225 -197 226q-125 0 -213 -74v-25q-4 -150 52 -247t170 -97zM569 -25q-131 -1 -229 49q-177 89 -242 324q-29 104 -28 225q0 365 231 590t627 226l59 -218q-135 -1 -260 -35t-203 -102q-123 -109 -153 -280q109 80 279 80t287 -110
q116 -110 116 -306q-1 -196 -137 -320q-136 -123 -347 -123z" />
    <glyph glyph-name="seven" unicode="7" horiz-adv-x="980" 
d="M41 776v223h858v-147l-592 -1264l-227 111l504 1077h-543z" />
    <glyph glyph-name="eight" unicode="8" horiz-adv-x="1097" 
d="M713 1032q0 68 -42 112t-117 44t-118 -42t-43 -108q0 -111 166 -207q154 100 154 201zM350 350q0 -76 54 -124t144 -48q91 0 141 49t50 125q0 123 -215 238q-174 -109 -174 -240zM1020 352q0 -176 -130 -276t-346 -101t-342 101t-126 264q0 217 262 360
q-223 129 -223 326q0 160 125 261q124 101 318 101t312 -92t119 -261q0 -169 -244 -308q139 -74 207 -163t68 -212z" />
    <glyph glyph-name="nine" unicode="9" horiz-adv-x="1122" 
d="M568 375q112 0 196 71l2 23q4 152 -51 249t-168 97q-84 0 -138 -60t-55 -161q0 -219 214 -219zM469 168q-170 0 -288 111t-118 305q-1 194 141 316t351 122q372 0 469 -374q27 -103 27 -224q1 -369 -231 -585t-650 -216l-57 215q133 0 265 37q329 92 374 373
q-113 -80 -283 -80z" />
    <glyph glyph-name="colon" unicode=":" horiz-adv-x="585" 
d="M293 659q-76 -1 -129 51t-53 127t53 125t129 50t128 -50t52 -125t-52 -127t-128 -51zM293 -20q-76 0 -129 51t-53 126t53 125t129 50t128 -50t52 -125t-52 -126t-128 -51z" />
    <glyph glyph-name="semicolon" unicode=";" horiz-adv-x="585" 
d="M293 659q-76 -1 -129 51t-53 127t53 125t129 50t128 -50t52 -125t-52 -127t-128 -51zM238 -78q0 53 -61 118q-60 66 -60 134t48 112t124 44t133 -62t57 -164q0 -195 -151 -401h-174q84 127 84 219z" />
    <glyph glyph-name="less" unicode="&#x3c;" horiz-adv-x="800" 
d="M582 41l-529 467l525 475l145 -147l-354 -322l358 -315z" />
    <glyph glyph-name="equal" unicode="=" horiz-adv-x="978" 
d="M80 627v209h819v-209h-819zM80 244v209h819v-209h-819z" />
    <glyph glyph-name="greater" unicode="&#x3e;" horiz-adv-x="800" 
d="M223 41l-143 149l354 320l-360 317l147 156l527 -465z" />
    <glyph glyph-name="question" unicode="?" horiz-adv-x="845" 
d="M324 -20q-74 0 -124 50t-50 119t50 117t124 49q74 0 122 -48q48 -47 50 -117q0 -70 -49 -120t-123 -50zM203 457v108q0 89 33 143q34 54 108 103t108 91t33 110q0 154 -182 153q-78 0 -176 -49l-94 201q131 72 329 72q198 1 309 -97q110 -98 109 -256q0 -190 -192 -321
q-25 -19 -49 -32q-24 -14 -36 -25l-21 -21q-42 -40 -42 -98v-82h-237z" />
    <glyph glyph-name="at" unicode="@" horiz-adv-x="1662" 
d="M766 352q147 0 221 371l12 57q-41 16 -96 17q-92 1 -148 -101t-57 -243q0 -101 68 -101zM815 -201q-329 0 -525 194t-196 501q0 203 99 385q98 182 279 299t402 116q340 0 530 -187t191 -454q-1 -217 -115 -353t-310 -136t-212 176h-6q-92 -172 -270 -172q-96 0 -153 70
q-56 70 -56 174q0 229 120 388t318 158q145 0 303 -55l-59 -342q-16 -115 -16 -145t20 -54q20 -25 53 -24q84 0 143 83q58 83 58 218q0 231 -145 358q-144 127 -388 127t-412 -179t-169 -437q0 -258 138 -397t401 -140q162 0 297 60l65 -162q-172 -70 -385 -70z" />
    <glyph glyph-name="A" unicode="A" horiz-adv-x="1392" 
d="M31 0l520 1364h278l535 -1364h-315l-93 256h-544l-90 -256h-291zM492 487h382l-116 326q-25 68 -47 148q-23 80 -27 88h-4q-25 -102 -72 -236z" />
    <glyph glyph-name="B" unicode="B" horiz-adv-x="1232" 
d="M455 803h133q117 0 170 43t53 133q0 164 -217 164h-139v-340zM455 221h151q127 0 191 43q63 43 63 139q0 193 -242 193h-163v-375zM170 0v1364h455q211 0 341 -80t130 -260q0 -250 -242 -313v-4q129 -21 214 -105t85 -223q0 -379 -535 -379h-448z" />
    <glyph glyph-name="C" unicode="C" horiz-adv-x="1265" 
d="M788 -25q-332 0 -516 206t-184 502t187 501t518 205q244 0 409 -109l-129 -211q-123 80 -296 80t-277 -130t-104 -332t102 -336q104 -134 284 -134t320 105l119 -203q-61 -55 -179 -99t-254 -45z" />
    <glyph glyph-name="D" unicode="D" horiz-adv-x="1445" 
d="M459 231h135q463 0 463 461q0 228 -115 334t-358 107h-125v-902zM170 0v1364h412q388 0 584 -178t196 -488t-201 -504t-590 -194h-401z" />
    <glyph glyph-name="E" unicode="E" horiz-adv-x="1085" 
d="M170 0v1364h786v-238h-501v-307h442v-225h-442v-356h516v-238h-801z" />
    <glyph glyph-name="F" unicode="F" horiz-adv-x="1044" 
d="M170 0v1364h782v-238h-493v-333h434v-226h-434v-567h-289z" />
    <glyph glyph-name="G" unicode="G" horiz-adv-x="1454" 
d="M803 -25q-331 0 -523 208t-192 501t202 499t541 206q281 0 449 -123l-129 -215q-135 98 -336 98t-311 -126t-109 -334q-1 -208 103 -343t309 -135q160 0 242 53v271h-252v223h528v-652q-192 -131 -522 -131z" />
    <glyph glyph-name="H" unicode="H" horiz-adv-x="1525" 
d="M170 0v1364h289v-537h610v537h289v-1364h-289v590h-610v-590h-289z" />
    <glyph glyph-name="I" unicode="I" horiz-adv-x="663" 
d="M182 0v1364h289v-1364h-289z" />
    <glyph glyph-name="J" unicode="J" horiz-adv-x="677" 
d="M117 -418q-115 0 -201 33l45 235q41 -18 111 -18q144 0 145 203v1329h291v-1368q0 -202 -104 -308t-287 -106z" />
    <glyph glyph-name="K" unicode="K" horiz-adv-x="1290" 
d="M170 0v1364h287v-594l465 594h319l-502 -633l525 -731h-342l-465 653v-653h-287z" />
    <glyph glyph-name="L" unicode="L" horiz-adv-x="1052" 
d="M174 0v1364h291v-1131h508v-233h-799z" />
    <glyph glyph-name="M" unicode="M" horiz-adv-x="1806" 
d="M84 0l188 1364h281l274 -842q18 -57 43 -143t27 -92h4q35 123 72 235l282 842h279l188 -1364h-295l-88 705q-20 160 -22 198h-4q-10 -55 -56 -194l-231 -709h-285l-231 707q-32 104 -55 196h-4q-6 -92 -19 -201l-88 -702h-260z" />
    <glyph glyph-name="N" unicode="N" horiz-adv-x="1519" 
d="M168 0v1364h291l491 -707q82 -117 144 -229h4q-8 74 -8 215v721h262v-1364h-265l-530 758q-35 49 -131 205h-4q8 -74 8 -183v-780h-262z" />
    <glyph glyph-name="O" unicode="O" horiz-adv-x="1583" 
d="M793 209q195 0 296 133t101 338t-99 340t-294 135t-298 -132t-103 -336t100 -341q102 -137 297 -137zM798 -25q-327 0 -518 206q-192 206 -192 500t188 501t516 207t516 -205q187 -205 187 -499t-185 -502t-512 -208z" />
    <glyph glyph-name="P" unicode="P" horiz-adv-x="1210" 
d="M457 705h129q135 0 197 55t63 170q0 213 -254 213h-135v-438zM166 0v1364h448q234 0 378 -110t144 -324t-146 -330q-148 -115 -408 -115h-125v-485h-291z" />
    <glyph glyph-name="Q" unicode="Q" horiz-adv-x="1583" 
d="M793 209q195 0 296 133t101 338t-99 340t-294 135t-298 -132t-103 -336t100 -341q102 -137 297 -137zM1245 -358q-168 0 -303 76t-285 274q-265 42 -417 236t-152 470t188 484q188 207 516 207t516 -205q187 -205 187 -496q0 -246 -132 -440t-372 -250q59 -78 119 -110
t150 -32q91 0 161 56l92 -191q-100 -79 -268 -79z" />
    <glyph glyph-name="R" unicode="R" horiz-adv-x="1269" 
d="M459 766h157q225 0 226 188q0 188 -238 189h-145v-377zM170 0v1364h455q243 0 373 -101t130 -292q0 -158 -90 -250t-227 -117v-4q66 -47 160 -194l266 -406h-317l-250 389q-78 115 -111 143t-82 29h-18v-561h-289z" />
    <glyph glyph-name="S" unicode="S" horiz-adv-x="1056" 
d="M470 -25q-242 0 -407 136l123 200q139 -102 293 -102q100 0 159 45q58 45 58 115t-63 111q-40 27 -124 67q-85 39 -118 55q-143 70 -218 162t-75 254t126 266t315 105q246 0 399 -115l-117 -203q-129 84 -266 84q-84 0 -133 -37q-49 -36 -49 -100t43 -101t83 -54
q188 -81 249 -118t117 -86q110 -96 110 -280q1 -184 -131 -294t-374 -110z" />
    <glyph glyph-name="T" unicode="T" horiz-adv-x="1099" 
d="M406 0v1126h-377v238h1042v-238h-375v-1126h-290z" />
    <glyph glyph-name="U" unicode="U" horiz-adv-x="1464" 
d="M743 -25q-582 0 -581 553v836h289v-811q-1 -178 69 -259t230 -81q287 0 286 322v829h267v-809q0 -283 -142 -431t-418 -149z" />
    <glyph glyph-name="V" unicode="V" horiz-adv-x="1361" 
d="M553 0l-526 1364h311l287 -817q43 -125 69 -228h4q2 9 27 89t43 139l276 817h291l-508 -1364h-274z" />
    <glyph glyph-name="W" unicode="W" horiz-adv-x="1871" 
d="M563 401h4q0 2 10 42q9 40 22 105t26 111l186 705h285l182 -700q17 -71 36 -165t19 -96h4l6 39q15 101 43 213l177 709h276l-373 -1364h-266l-196 756q-55 213 -56 254h-4q0 -2 -9 -40t-23 -102t-29 -112l-215 -756h-267l-366 1364h307l172 -713q49 -201 49 -250z" />
    <glyph glyph-name="X" unicode="X" horiz-adv-x="1261" 
d="M39 0l432 700l-412 664h328l258 -426l242 426h291l-394 -659l439 -705h-328l-287 471l-276 -471h-293z" />
    <glyph glyph-name="Y" unicode="Y" horiz-adv-x="1224" 
d="M475 0v514l-452 850h321l289 -580h2l287 580h280l-438 -850v-514h-289z" />
    <glyph glyph-name="Z" unicode="Z" horiz-adv-x="1169" 
d="M94 0v188l625 940h-598v236h948v-184l-631 -944h649v-236h-993z" />
    <glyph glyph-name="bracketleft" unicode="[" horiz-adv-x="698" 
d="M133 -330v1805h512v-203h-252v-1399h252v-203h-512z" />
    <glyph glyph-name="backslash" unicode="\" horiz-adv-x="921" 
d="M653 -330l-651 1805h264l652 -1805h-265z" />
    <glyph glyph-name="bracketright" unicode="]" horiz-adv-x="698" 
d="M53 -330v203h252v1399h-252v203h512v-1805h-512z" />
    <glyph glyph-name="asciicircum" unicode="^" horiz-adv-x="1196" 
d="M90 590l412 774h190l412 -774h-250l-256 493l-256 -493h-252z" />
    <glyph glyph-name="underscore" unicode="_" horiz-adv-x="886" 
d="M-2 -377v211h891v-211h-891z" />
    <glyph glyph-name="grave" unicode="`" horiz-adv-x="1024" 
d="M547 1108l-287 276h350l170 -276h-233z" />
    <glyph glyph-name="a" unicode="a" horiz-adv-x="1028" 
d="M451 174q106 0 184 88v180h-35q-270 0 -270 -163q0 -51 35 -78t86 -27zM369 -25q-131 0 -216 75t-85 206q0 180 154 267q155 87 378 87h35v58q0 74 -37 106t-125 33q-135 0 -254 -94l-119 166q156 143 404 143q207 0 304 -87t97 -282v-358q0 -168 29 -295h-268
q-12 35 -17 106q-106 -131 -280 -131z" />
    <glyph glyph-name="b" unicode="b" horiz-adv-x="1132" 
d="M539 188q115 0 178 83t63 235q0 301 -211 301q-96 0 -168 -76v-520q54 -23 138 -23zM645 1022q195 0 309 -132t115 -382q-1 -250 -149 -392t-392 -141q-244 0 -399 80v1420h272v-555q102 102 244 102z" />
    <glyph glyph-name="c" unicode="c" horiz-adv-x="937" 
d="M578 -25q-238 1 -377 145t-139 384t146 379t378 139q182 0 305 -80l-88 -186q-94 59 -210 59t-179 -84q-64 -84 -64 -227q0 -142 64 -230t181 -88q118 0 220 62l84 -182q-137 -91 -321 -91z" />
    <glyph glyph-name="d" unicode="d" horiz-adv-x="1140" 
d="M555 193q111 0 186 100v450q-72 66 -175 66t-158 -82t-56 -231q0 -303 203 -303zM463 -27q-180 -1 -290 137t-110 380t126 387t321 145q147 0 231 -70v523h273v-1190q0 -154 28 -285h-268q-16 49 -20 109q-111 -136 -291 -136z" />
    <glyph glyph-name="e" unicode="e" horiz-adv-x="1062" 
d="M350 621h373q-4 205 -172 204q-168 1 -201 -204zM584 -25q-246 -1 -384 143t-138 380t140 380q142 144 353 144t323 -128t111 -364q0 -29 -4 -94h-631q10 -118 72 -188t183 -70q120 0 259 70l88 -176q-171 -97 -372 -97z" />
    <glyph glyph-name="f" unicode="f" horiz-adv-x="747" 
d="M184 0v795h-149v202h149v103q0 182 104 291t278 109t253 -48l-63 -205q-57 29 -138 29q-162 0 -161 -197v-82h237v-202h-237v-795h-273z" />
    <glyph glyph-name="g" unicode="g" horiz-adv-x="1099" 
d="M518 475q84 0 132 49t48 136q0 88 -48 136t-132 48t-132 -48t-48 -136t48 -136q48 -49 132 -49zM514 -307q121 0 191 41q69 40 69 106t-46 85q-68 28 -193 28q-115 10 -138 14q-78 -55 -78 -139q0 -135 195 -135zM514 -489q-456 0 -455 266q0 154 168 243q-88 51 -88 161
t111 179q-176 96 -176 299q0 163 119 263t323 100q102 0 178 -25h363v-178h-137q41 -72 41 -160q0 -164 -113 -262t-318 -98q-70 0 -118 8q-37 -20 -37 -58t43 -51q42 -14 208 -22t248 -39q170 -66 170 -266q0 -160 -151 -260t-379 -100z" />
    <glyph glyph-name="h" unicode="h" 
d="M129 0v1475h272v-598q135 145 301 145t238 -87t72 -237v-698h-273v643q0 78 -30 115q-31 37 -101 37q-111 0 -207 -125v-670h-272z" />
    <glyph glyph-name="i" unicode="i" horiz-adv-x="573" 
d="M150 0v997h274v-997h-274zM287 1126q-72 0 -119 48t-47 116q0 66 47 113t119 47t120 -47t48 -114t-48 -115t-120 -48z" />
    <glyph glyph-name="j" unicode="j" horiz-adv-x="563" 
d="M281 1126q-72 0 -119 48t-47 116q0 66 47 113t119 47q71 0 119 -47t48 -114t-47 -115q-48 -48 -120 -48zM76 -477q-119 0 -178 24l47 211q37 -12 78 -12q71 0 97 48t25 165v1038h275v-1067q0 -407 -344 -407z" />
    <glyph glyph-name="k" unicode="k" horiz-adv-x="1058" 
d="M129 0v1475h272v-881l330 403h297l-369 -444l377 -553h-315l-320 487v-487h-272z" />
    <glyph glyph-name="l" unicode="l" horiz-adv-x="563" 
d="M145 0v1475h273v-1475h-273z" />
    <glyph glyph-name="m" unicode="m" horiz-adv-x="1685" 
d="M133 0v997h266v-123q131 147 299 148q195 0 256 -158q141 158 320 158q285 0 285 -324v-698h-273v643q0 78 -26 115q-27 37 -93 37q-94 0 -186 -113v-682h-272v643q0 152 -117 152q-92 0 -186 -123v-672h-273z" />
    <glyph glyph-name="n" unicode="n" horiz-adv-x="1140" 
d="M133 0v997h266v-125q127 150 318 150q155 0 227 -88t72 -236v-698h-273v643q0 78 -30 115q-31 37 -103 37q-113 0 -204 -125v-670h-273z" />
    <glyph glyph-name="o" unicode="o" horiz-adv-x="1126" 
d="M565 182q211 0 211 314q0 147 -54 235t-167 88q-205 0 -205 -315q0 -146 52 -234t163 -88zM561 -25q-244 0 -372 154t-128 367q0 214 127 370t371 156q166 0 284 -78q222 -147 222 -440q0 -211 -130 -370t-374 -159z" />
    <glyph glyph-name="p" unicode="p" horiz-adv-x="1144" 
d="M582 186q100 0 155 82t55 228t-50 228q-50 81 -156 81t-180 -103v-448q76 -68 176 -68zM133 -449v1446h266v-104q107 129 287 129t288 -137t108 -379t-126 -386q-125 -144 -321 -145q-147 0 -229 72v-496h-273z" />
    <glyph glyph-name="q" unicode="q" horiz-adv-x="1134" 
d="M567 190q100 0 168 76v520q-68 23 -135 23q-118 0 -182 -83t-64 -234q0 -302 213 -302zM735 -446v526q-100 -104 -243 -105q-193 1 -309 135t-115 382q0 248 149 389t385 141t406 -74v-1394h-273z" />
    <glyph glyph-name="r" unicode="r" horiz-adv-x="798" 
d="M133 0v997h273v-135q94 160 251 160q86 0 136 -27l-66 -237q-37 23 -104 22q-135 0 -217 -151v-629h-273z" />
    <glyph glyph-name="s" unicode="s" horiz-adv-x="860" 
d="M803 295q-1 -156 -105 -238t-304 -82t-341 95l92 190q119 -82 246 -82q164 0 164 90q0 40 -41 60q-41 21 -108 49q-68 28 -103 45q-113 53 -168 120q-55 66 -55 190t101 207t279 83t312 -80l-96 -186q-100 63 -225 63t-125 -88q0 -40 33 -59q52 -29 109 -48
q175 -59 266 -147q69 -66 69 -182z" />
    <glyph glyph-name="t" unicode="t" horiz-adv-x="792" 
d="M502 -25q-305 0 -303 312v508h-160v202h160v289h270v-289h233v-202h-233v-455q0 -76 23 -109t85 -33t123 38l64 -203q-104 -58 -262 -58z" />
    <glyph glyph-name="u" unicode="u" horiz-adv-x="1140" 
d="M424 -25q-156 0 -228 88t-71 236v698h272v-643q0 -78 31 -114t102 -37q100 0 205 125v669h273v-710q0 -158 26 -287h-268q-16 53 -21 133q-124 -158 -321 -158z" />
    <glyph glyph-name="v" unicode="v" horiz-adv-x="1038" 
d="M391 0l-371 997h295l207 -659h4l213 659h277l-369 -997h-256z" />
    <glyph glyph-name="w" unicode="w" horiz-adv-x="1521" 
d="M305 0l-282 997h292l152 -635h4l170 635h252l170 -639h4l156 639h272l-285 -997h-245l-205 668h-4l-205 -668h-246z" />
    <glyph glyph-name="x" unicode="x" horiz-adv-x="1046" 
d="M33 0l340 516l-328 481h307q174 -264 180 -272l160 272h281l-309 -469l352 -528h-307l-207 319l-189 -319h-280z" />
    <glyph glyph-name="y" unicode="y" horiz-adv-x="1058" 
d="M160 -479q-92 0 -154 18l39 215q37 -10 115 -10t128 43q48 43 81 131l37 102l-375 977h291l225 -657h6l203 657h280l-411 -1103q-72 -193 -172 -283t-293 -90z" />
    <glyph glyph-name="z" unicode="z" horiz-adv-x="937" 
d="M80 0v147l434 646h-414v204h746v-157l-432 -635h436v-205h-770z" />
    <glyph glyph-name="braceleft" unicode="{" horiz-adv-x="831" 
d="M530 -330q-98 0 -171 67t-72 187v350q0 201 -234 207v205q233 6 234 207v330q-1 123 71 187t174 65h244v-203h-127q-59 0 -81 -35t-21 -104v-299q0 -190 -187 -244v-4q186 -59 187 -258v-318q0 -78 19 -108t83 -29h127v-203h-246z" />
    <glyph glyph-name="bar" unicode="|" horiz-adv-x="585" 
d="M174 -512v2048h240v-2048h-240z" />
    <glyph glyph-name="braceright" unicode="}" horiz-adv-x="831" 
d="M53 -330v203h127q61 0 83 35t22 104v322q0 190 186 244v4q-186 59 -186 258v295q1 77 -19 107t-84 30h-129v203h248q98 0 171 -67t73 -187v-328q0 -201 233 -207v-205q-233 -6 -233 -207v-352q0 -124 -73 -188t-173 -64h-246z" />
    <glyph glyph-name="asciitilde" unicode="~" horiz-adv-x="1198" 
d="M799 338q-105 0 -223 59t-202 59t-173 -83l-123 162q139 145 317 145q94 0 210 -59t210 -59t182 83l123 -160q-137 -147 -321 -147z" />
    <glyph glyph-name="uni00A0" unicode="&#xa0;" horiz-adv-x="397" 
 />
    <glyph glyph-name="exclamdown" unicode="&#xa1;" horiz-adv-x="610" 
d="M152 -360l51 901h217l51 -901h-319zM311 688q-74 0 -123 48t-49 118t49 119t123 49t123 -49t49 -119t-49 -118t-123 -48z" />
    <glyph glyph-name="cent" unicode="&#xa2;" horiz-adv-x="937" 
d="M420 -252v246q-168 43 -263 178t-95 330q0 196 96 326q98 130 262 173v226h227v-207q141 -12 244 -78l-88 -186q-94 59 -210 59t-179 -84q-64 -84 -64 -227q0 -142 64 -230t181 -88q118 0 220 62l84 -182q-113 -74 -252 -86v-232h-227z" />
    <glyph glyph-name="sterling" unicode="&#xa3;" horiz-adv-x="1050" 
d="M127 551v199h172q-25 143 -25 239q0 182 117 291t307 109t314 -76l-109 -191q-84 47 -176 47q-168 0 -168 -202q0 -90 23 -217h297v-199h-271v-29q0 -102 -39 -183t-90 -122h479v-217h-827v174q98 49 149 142q50 93 50 198q0 25 -2 37h-201z" />
    <glyph glyph-name="currency" unicode="&#xa4;" horiz-adv-x="1273" 
d="M645 399q82 -1 130 53t48 136t-49 135t-129 53t-129 -53t-49 -135t48 -136t130 -53zM215 590q0 142 82 248l-164 206l197 152l159 -215q74 27 154 27t141 -23l158 211l199 -152l-156 -194q92 -104 92 -258t-86 -264l148 -187l-199 -151l-145 198q-72 -22 -159 -22
t-157 31l-153 -207l-199 151l162 203q-74 104 -74 246z" />
    <glyph glyph-name="yen" unicode="&#xa5;" horiz-adv-x="1193" 
d="M461 0v174h-332v191h332v118h-332v189h248l-369 692h322l286 -586h5l286 586h281l-359 -692h254v-189h-333v-118h333v-191h-333v-174h-289z" />
    <glyph glyph-name="brokenbar" unicode="&#xa6;" horiz-adv-x="493" 
d="M123 782v754h239v-754h-239zM123 -512v774h239v-774h-239z" />
    <glyph glyph-name="section" unicode="&#xa7;" horiz-adv-x="952" 
d="M375 805q-37 -35 -37 -92t24 -93q24 -35 37 -53q12 -18 42 -49t40 -43t45 -46t39 -38q45 45 45 97t-24 87q-49 71 -79 100l-45 45q-15 15 -46 45t-41 40zM390 -311q-173 0 -275 69l84 197q75 -51 155 -51t121 36t41 89t-45 107t-109 110t-128 116q-66 60 -110 144
t-44 174q0 176 158 274q-70 102 -70 207q0 154 106 246t272 92t277 -78l-100 -178q-73 49 -145 49t-105 -34t-33 -85q0 -85 152 -220q62 -56 126 -119q64 -62 108 -148t44 -178q0 -154 -149 -272q70 -98 70 -197q0 -172 -114 -261t-287 -89z" />
    <glyph glyph-name="dieresis" unicode="&#xa8;" horiz-adv-x="1024" 
d="M727 1110q-66 0 -109 43t-43 103t43 104t109 43q66 0 109 -43q43 -44 43 -104t-43 -103t-109 -43zM297 1110q-66 0 -109 43t-43 103t43 104t109 43q66 0 109 -43q43 -44 43 -104t-43 -103t-109 -43z" />
    <glyph glyph-name="copyright" unicode="&#xa9;" horiz-adv-x="1712" 
d="M854 129q260 0 428 168t168 438q0 271 -168 439t-427 168t-427 -168t-168 -438t167 -439q167 -168 427 -168zM92 735q0 315 223 539t539 225q316 0 540 -223q224 -222 224 -540t-224 -542t-539 -223t-539 225t-224 539zM864 276q-188 0 -318 132q-128 132 -128 328
t131 327t314 131t313 -111l-109 -153q-90 70 -192 70t-167 -76t-65 -190t69 -192t171 -77q102 0 209 90l102 -147q-142 -132 -330 -132z" />
    <glyph glyph-name="ordfeminine" unicode="&#xaa;" horiz-adv-x="772" 
d="M453 967q-206 0 -203 -107q0 -69 77 -69t126 55v121zM279 639q-103 0 -167 54t-65 158q0 104 94 173q100 70 312 70v34q0 49 -24 73q-25 24 -101 24t-166 -68l-92 129q119 102 285 102q167 0 239 -62q72 -64 72 -204v-252q0 -125 24 -213h-211q-10 27 -14 68
q-83 -86 -186 -86z" />
    <glyph glyph-name="guillemotleft" unicode="&#xab;" horiz-adv-x="1103" 
d="M766 109l-246 393l246 395h278l-243 -395l243 -393h-278zM311 109l-245 393l245 395h279l-244 -395l244 -393h-279z" />
    <glyph glyph-name="logicalnot" unicode="&#xac;" horiz-adv-x="1277" 
d="M963 61v379h-881v211h1100v-590h-219z" />
    <glyph glyph-name="uni00AD" unicode="&#xad;" horiz-adv-x="675" 
d="M104 467v221h467v-221h-467z" />
    <glyph glyph-name="registered" unicode="&#xae;" horiz-adv-x="1712" 
d="M754 801h77q147 0 148 112q0 115 -133 115h-92v-227zM854 129q260 0 428 168t168 438q0 271 -168 439t-427 168t-427 -168t-168 -438t167 -439q167 -168 427 -168zM92 735q0 315 223 539t539 225q316 0 540 -223q224 -222 224 -540t-224 -542t-539 -223t-539 225
t-224 539zM563 319v855h303q146 0 226 -67t79 -183q0 -186 -196 -228q45 -35 102 -127l154 -250h-211l-162 271q-31 49 -50 64t-54 16v-351h-191z" />
    <glyph glyph-name="macron" unicode="&#xaf;" horiz-adv-x="1024" 
d="M221 1151v195h580v-195h-580z" />
    <glyph glyph-name="degree" unicode="&#xb0;" horiz-adv-x="708" 
d="M354 967q55 0 90 38t35 96t-35 96t-90 38t-90 -38t-35 -96t35 -96t90 -38zM354 813q-121 0 -207 84t-86 204t86 204t207 84t207 -84t86 -204t-86 -204t-207 -84z" />
    <glyph glyph-name="plusminus" unicode="&#xb1;" horiz-adv-x="1175" 
d="M113 -311v211h927v-211h-927zM461 53v381h-377v209h377v369h233v-369h371v-209h-371v-381h-233z" />
    <glyph glyph-name="twosuperior" unicode="&#xb2;" horiz-adv-x="702" 
d="M51 678v110q199 156 259 224t59 127q0 75 -81 75t-155 -65l-100 133q119 96 268 96t221 -59t72 -151t-62 -166q-62 -75 -180 -166q18 6 99 6h174v-164h-574z" />
    <glyph glyph-name="threesuperior" unicode="&#xb3;" horiz-adv-x="659" 
d="M575 891q0 -105 -95 -165q-94 -60 -236 -60t-203 24l41 154q53 -20 127 -21q141 0 141 66q0 72 -188 76v122q80 2 125 25t45 57q0 51 -75 51t-136 -42l-76 131q105 69 239 69t200 -43t65 -112q0 -69 -43 -109t-105 -55v-2q68 -8 121 -49t53 -117z" />
    <glyph glyph-name="acute" unicode="&#xb4;" horiz-adv-x="1024" 
d="M297 1108l170 276h352l-287 -276h-235z" />
    <glyph glyph-name="uni00B5" unicode="&#xb5;" horiz-adv-x="1157" 
d="M127 -428v1425h272v-649q0 -72 27 -108t94 -37q115 0 217 125v669h273v-714q0 -168 24 -283h-268q-16 49 -21 133q-123 -139 -260 -149q-55 -4 -94 12h-6q8 -53 8 -205v-219h-266z" />
    <glyph glyph-name="paragraph" unicode="&#xb6;" horiz-adv-x="1355" 
d="M498 -362v878q-178 0 -299 117t-121 305t121 307t299 119h788v-213h-153v-1513h-236v1513h-160v-1513h-239z" />
    <glyph glyph-name="periodcentered" unicode="&#xb7;" horiz-adv-x="528" 
d="M264 418q-76 0 -128 51t-52 125t52 125t128 51t128 -51t52 -125t-52 -125t-128 -51z" />
    <glyph glyph-name="cedilla" unicode="&#xb8;" horiz-adv-x="1011" 
d="M725 -290q1 -75 -71 -128t-178 -53t-175 31l35 123q45 -23 104 -23q98 0 99 70q0 86 -146 77l74 199h156l-43 -119q66 -14 106 -58t39 -119z" />
    <glyph glyph-name="onesuperior" unicode="&#xb9;" horiz-adv-x="585" 
d="M219 678v508l-149 -37l-45 162l247 53h158v-686h-211z" />
    <glyph glyph-name="ordmasculine" unicode="&#xba;" horiz-adv-x="839" 
d="M420 797q139 0 139 218t-145 218q-74 0 -104 -54t-29 -161q0 -221 139 -221zM786 1016q0 -154 -95 -266t-272 -111q-177 0 -272 109q-94 110 -94 266t94 266q95 110 271 109q176 0 272 -109q96 -110 96 -264z" />
    <glyph glyph-name="guillemotright" unicode="&#xbb;" horiz-adv-x="1103" 
d="M514 109l244 395l-244 393h277l247 -393l-247 -395h-277zM57 109l246 395l-246 393h279l246 -393l-246 -395h-279z" />
    <glyph glyph-name="onequarter" unicode="&#xbc;" horiz-adv-x="1525" 
d="M1174 279v186h-3l-153 -191q37 4 88 5h68zM1167 0v127h-348v127l359 432h200v-407h107v-152h-107v-127h-211zM197 0l835 1364h217l-837 -1364h-215zM219 678v508l-149 -37l-45 162l247 53h158v-686h-211z" />
    <glyph glyph-name="onehalf" unicode="&#xbd;" horiz-adv-x="1568" 
d="M915 0v111q199 153 259 221t61 129q0 74 -82 74t-156 -64l-100 131q115 96 267 96t224 -59t72 -151t-63 -166t-180 -164q29 4 98 4h174v-162h-574zM197 0l835 1364h217l-837 -1364h-215zM219 678v508l-149 -37l-45 162l247 53h158v-686h-211z" />
    <glyph glyph-name="threequarters" unicode="&#xbe;" horiz-adv-x="1601" 
d="M1249 279v186h-2l-153 -191q37 4 86 5h69zM1243 0v127h-348v127l358 432h199v-407h109v-152h-109v-127h-209zM270 0l838 1364h217l-838 -1364h-217zM575 891q0 -105 -95 -165q-94 -60 -236 -60t-203 24l41 154q53 -20 127 -21q141 0 141 66q0 72 -188 76v122q80 2 125 25
t45 57q0 51 -75 51t-136 -42l-76 131q105 69 239 69t200 -43t65 -112q0 -69 -43 -109t-105 -55v-2q68 -8 121 -49t53 -117z" />
    <glyph glyph-name="questiondown" unicode="&#xbf;" horiz-adv-x="841" 
d="M522 688q-74 0 -123 48t-49 118t49 119t123 49t123 -49t49 -119t-49 -118t-123 -48zM480 -385q-196 0 -306 98q-109 98 -108 254q0 188 192 320q99 59 122 99q24 40 26 79v82h237v-111q0 -90 -33 -143q-32 -53 -108 -101t-109 -92t-33 -110q0 -152 181 -152q82 0 176 47
l94 -200q-135 -70 -331 -70z" />
    <glyph glyph-name="Agrave" unicode="&#xc0;" horiz-adv-x="1392" 
d="M586 1468l-287 277h350l170 -277h-233zM31 0l520 1364h278l535 -1364h-315l-93 256h-544l-90 -256h-291zM492 487h382l-116 326q-25 68 -47 148q-23 80 -27 88h-4q-25 -102 -72 -236z" />
    <glyph glyph-name="Aacute" unicode="&#xc1;" horiz-adv-x="1392" 
d="M547 1468l170 277h352l-287 -277h-235zM31 0l520 1364h278l535 -1364h-315l-93 256h-544l-90 -256h-291zM492 487h382l-116 326q-25 68 -47 148q-23 80 -27 88h-4q-25 -102 -72 -236z" />
    <glyph glyph-name="Acircumflex" unicode="&#xc2;" horiz-adv-x="1392" 
d="M319 1470l261 326h208l256 -326h-231l-131 136l-131 -136h-232zM31 0l520 1364h278l535 -1364h-315l-93 256h-544l-90 -256h-291zM492 487h382l-116 326q-25 68 -47 148q-23 80 -27 88h-4q-25 -102 -72 -236z" />
    <glyph glyph-name="Atilde" unicode="&#xc3;" horiz-adv-x="1392" 
d="M803 1479q-65 -1 -135 35t-113 36t-104 -61l-125 108q35 61 95 107t132 47q73 0 141 -36t105 -36q63 0 114 64l125 -109q-92 -155 -235 -155zM31 0l520 1364h278l535 -1364h-315l-93 256h-544l-90 -256h-291zM492 487h382l-116 326q-25 68 -47 148q-23 80 -27 88h-4
q-25 -102 -72 -236z" />
    <glyph glyph-name="Adieresis" unicode="&#xc4;" horiz-adv-x="1392" 
d="M897 1470q-66 0 -109 43t-43 103t43 104q43 43 109 43t109 -43t43 -103q0 -59 -43 -103t-109 -44zM467 1470q-66 0 -109 43t-43 103t43 104q43 43 109 43q67 0 109 -43t42 -103q0 -59 -42 -103t-109 -44zM31 0l520 1364h278l535 -1364h-315l-93 256h-544l-90 -256h-291z
M492 487h382l-116 326q-25 68 -47 148q-23 80 -27 88h-4q-25 -102 -72 -236z" />
    <glyph glyph-name="Aring" unicode="&#xc5;" horiz-adv-x="1392" 
d="M682 1559q43 1 69 31t25 73q0 43 -25 73q-26 30 -69 30t-69 -30q-25 -30 -25 -73t25 -74q26 -30 69 -30zM682 1444q-90 0 -158 63t-68 155t68 155t158 63t158 -63t68 -155t-68 -155t-158 -63zM31 0l520 1364h278l535 -1364h-315l-93 256h-544l-90 -256h-291zM492 487h382
l-116 326q-25 68 -47 148q-23 80 -27 88h-4q-25 -102 -72 -236z" />
    <glyph glyph-name="AE" unicode="&#xc6;" horiz-adv-x="1759" 
d="M842 514v551l-301 -551h301zM1628 1364v-238h-502v-307h443v-225h-443v-356h516v-238h-800v289h-420l-158 -289h-311l774 1364h901z" />
    <glyph glyph-name="Ccedilla" unicode="&#xc7;" horiz-adv-x="1265" 
d="M901 -290q1 -75 -71 -128t-178 -53t-175 31l35 123q45 -23 104 -23q98 0 99 70q0 86 -146 77l68 183q-262 45 -406 240q-143 196 -143 472t187 482q187 205 518 205q244 0 409 -109l-129 -211q-123 80 -296 80t-277 -130t-104 -332t102 -336q104 -134 284 -134t320 105
l119 -203q-61 -55 -179 -99t-254 -45h-2l-30 -88q66 -14 106 -58t39 -119z" />
    <glyph glyph-name="Egrave" unicode="&#xc8;" horiz-adv-x="1085" 
d="M469 1468l-287 277h350l170 -277h-233zM170 0v1364h786v-238h-501v-307h442v-225h-442v-356h516v-238h-801z" />
    <glyph glyph-name="Eacute" unicode="&#xc9;" horiz-adv-x="1085" 
d="M170 0v1364h786v-238h-501v-307h442v-225h-442v-356h516v-238h-801zM426 1468l170 277h352l-286 -277h-236z" />
    <glyph glyph-name="Ecircumflex" unicode="&#xca;" horiz-adv-x="1085" 
d="M170 0v1364h786v-238h-501v-307h442v-225h-442v-356h516v-238h-801zM199 1470l260 326h209l256 -326h-232l-131 136l-131 -136h-231z" />
    <glyph glyph-name="Edieresis" unicode="&#xcb;" horiz-adv-x="1085" 
d="M170 0v1364h786v-238h-501v-307h442v-225h-442v-356h516v-238h-801zM776 1470q-66 0 -108 43t-43 103q0 60 43 104q42 43 108 43t109 -43t43 -103q0 -59 -43 -103t-109 -44zM346 1470q-66 0 -108 43t-43 103q0 60 43 104q42 43 108 43t109 -43t43 -103q0 -59 -43 -103
t-109 -44z" />
    <glyph glyph-name="Igrave" unicode="&#xcc;" horiz-adv-x="663" 
d="M231 1468l-286 277h350l170 -277h-234zM182 0v1364h289v-1364h-289z" />
    <glyph glyph-name="Iacute" unicode="&#xcd;" horiz-adv-x="663" 
d="M193 1468l169 277h353l-287 -277h-235zM182 0v1364h289v-1364h-289z" />
    <glyph glyph-name="Icircumflex" unicode="&#xce;" horiz-adv-x="663" 
d="M-35 1470l260 326h209l256 -326h-231l-131 136l-131 -136h-232zM182 0v1364h289v-1364h-289z" />
    <glyph glyph-name="Idieresis" unicode="&#xcf;" horiz-adv-x="663" 
d="M543 1470q-66 0 -109 43t-43 103t43 104q43 43 109 43q67 0 109 -43t42 -103q0 -59 -42 -103t-109 -44zM113 1470q-66 0 -109 43t-43 103t43 104q43 43 109 43q67 0 109 -43t42 -103q0 -59 -42 -103t-109 -44zM182 0v1364h289v-1364h-289z" />
    <glyph glyph-name="Eth" unicode="&#xd0;" horiz-adv-x="1435" 
d="M459 231h135q463 0 463 461q0 228 -115 334t-358 107h-125v-338h215v-203h-215v-361zM170 0v592h-133v203h133v569h412q388 0 584 -178t196 -488t-201 -504t-590 -194h-401z" />
    <glyph glyph-name="Ntilde" unicode="&#xd1;" horiz-adv-x="1519" 
d="M879 1479q-66 -1 -136 35q-71 36 -113 36t-104 -61l-125 108q35 61 95 107t133 47q73 0 141 -36t104 -36q63 0 115 64l125 -109q-92 -155 -235 -155zM168 0v1364h291l491 -707q82 -117 144 -229h4q-8 74 -8 215v721h262v-1364h-265l-530 758q-35 49 -131 205h-4
q8 -74 8 -183v-780h-262z" />
    <glyph glyph-name="Ograve" unicode="&#xd2;" horiz-adv-x="1583" 
d="M696 1468l-286 277h350l170 -277h-234zM793 209q195 0 296 133t101 338t-99 340t-294 135t-298 -132t-103 -336t100 -341q102 -137 297 -137zM798 -25q-327 0 -518 206q-192 206 -192 500t188 501t516 207t516 -205q187 -205 187 -499t-185 -502t-512 -208z" />
    <glyph glyph-name="Oacute" unicode="&#xd3;" horiz-adv-x="1583" 
d="M793 209q195 0 296 133t101 338t-99 340t-294 135t-298 -132t-103 -336t100 -341q102 -137 297 -137zM798 -25q-327 0 -518 206q-192 206 -192 500t188 501t516 207t516 -205q187 -205 187 -499t-185 -502t-512 -208zM655 1468l170 277h353l-287 -277h-236z" />
    <glyph glyph-name="Ocircumflex" unicode="&#xd4;" horiz-adv-x="1583" 
d="M793 209q195 0 296 133t101 338t-99 340t-294 135t-298 -132t-103 -336t100 -341q102 -137 297 -137zM798 -25q-327 0 -518 206q-192 206 -192 500t188 501t516 207t516 -205q187 -205 187 -499t-185 -502t-512 -208zM428 1470l260 326h209l256 -326h-231l-131 136
l-132 -136h-231z" />
    <glyph glyph-name="Otilde" unicode="&#xd5;" horiz-adv-x="1583" 
d="M911 1479q-65 -1 -135 35t-112 36t-105 -61l-125 108q35 61 95 107q61 46 133 47q72 0 140 -36t105 -36q63 0 115 64l125 -109q-93 -155 -236 -155zM793 209q195 0 296 133t101 338t-99 340t-294 135t-298 -132t-103 -336t100 -341q102 -137 297 -137zM798 -25
q-327 0 -518 206q-192 206 -192 500t188 501t516 207t516 -205q187 -205 187 -499t-185 -502t-512 -208z" />
    <glyph glyph-name="Odieresis" unicode="&#xd6;" horiz-adv-x="1583" 
d="M793 209q195 0 296 133t101 338t-99 340t-294 135t-298 -132t-103 -336t100 -341q102 -137 297 -137zM798 -25q-327 0 -518 206q-192 206 -192 500t188 501t516 207t516 -205q187 -205 187 -499t-185 -502t-512 -208zM1006 1470q-66 0 -109 43t-43 103t43 104
q43 43 109 43t108 -43t43 -103q-1 -59 -43 -103t-108 -44zM575 1470q-67 0 -109 43t-42 103t43 104q43 43 109 43t108 -43q43 -43 43 -103q0 -59 -43 -103t-109 -44z" />
    <glyph glyph-name="multiply" unicode="&#xd7;" horiz-adv-x="1046" 
d="M776 131l-256 254l-246 -244l-155 156l246 246l-248 248l159 159l248 -245l244 243l158 -157l-244 -244l256 -256z" />
    <glyph glyph-name="Oslash" unicode="&#xd8;" horiz-adv-x="1583" 
d="M793 209q195 0 296 133q101 134 101 322t-66 305l-512 -719q79 -41 181 -41zM799 1155q-197 0 -301 -132q-104 -133 -103 -327q0 -194 78 -317l514 731q-84 45 -188 45zM88 668q0 307 188 514t517 207q182 0 331 -72l131 184l172 -123l-131 -184q199 -203 199 -503
t-185 -508t-511 -208q-174 0 -322 66l-139 -193l-170 121l135 189q-215 203 -215 510z" />
    <glyph glyph-name="Ugrave" unicode="&#xd9;" horiz-adv-x="1464" 
d="M635 1468l-287 277h350l170 -277h-233zM743 -25q-582 0 -581 553v836h289v-811q-1 -178 69 -259t230 -81q287 0 286 322v829h267v-809q0 -283 -142 -431t-418 -149z" />
    <glyph glyph-name="Uacute" unicode="&#xda;" horiz-adv-x="1464" 
d="M743 -25q-582 0 -581 553v836h289v-811q-1 -178 69 -259t230 -81q287 0 286 322v829h267v-809q0 -283 -142 -431t-418 -149zM596 1468l170 277h352l-287 -277h-235z" />
    <glyph glyph-name="Ucircumflex" unicode="&#xdb;" horiz-adv-x="1464" 
d="M743 -25q-582 0 -581 553v836h289v-811q-1 -178 69 -259t230 -81q287 0 286 322v829h267v-809q0 -283 -142 -431t-418 -149zM369 1470l260 326h209l256 -326h-232l-131 136l-131 -136h-231z" />
    <glyph glyph-name="Udieresis" unicode="&#xdc;" horiz-adv-x="1464" 
d="M743 -25q-582 0 -581 553v836h289v-811q-1 -178 69 -259t230 -81q287 0 286 322v829h267v-809q0 -283 -142 -431t-418 -149zM946 1470q-66 0 -108 43t-43 103q0 60 43 104q42 43 108 43t109 -43t43 -103q0 -59 -43 -103t-109 -44zM516 1470q-66 0 -108 43t-43 103
q0 60 43 104q42 43 108 43t109 -43t43 -103q0 -59 -43 -103t-109 -44z" />
    <glyph glyph-name="Yacute" unicode="&#xdd;" horiz-adv-x="1224" 
d="M483 1468l170 277h353l-287 -277h-236zM475 0v514l-452 850h321l289 -580h2l287 580h280l-438 -850v-514h-289z" />
    <glyph glyph-name="Thorn" unicode="&#xde;" horiz-adv-x="1224" 
d="M457 483h129q135 -1 197 55t63 169q0 215 -254 215h-135v-439zM166 0v1364h291v-221h157q234 0 378 -110q144 -111 144 -325t-146 -330q-148 -116 -408 -116h-125v-262h-291z" />
    <glyph glyph-name="germandbls" unicode="&#xdf;" horiz-adv-x="1185" 
d="M774 -25q-170 0 -287 66l78 195q88 -57 176 -58q139 0 140 101q0 43 -31 69t-52 42t-104 65q-166 104 -166 243q0 107 81 188q37 37 67 62q84 80 84 172q0 166 -162 166q-190 0 -190 -272v-1014h-273v1018q0 242 132 362t336 119q204 0 317 -104q112 -103 112 -249
t-123 -253q-18 -18 -47 -43t-45 -39q-41 -36 -41 -78t34 -70q11 -9 17 -15q7 -6 23 -15q16 -10 30 -19t54 -32q87 -56 129 -100q72 -77 73 -209q0 -133 -96 -215t-266 -83z" />
    <glyph glyph-name="agrave" unicode="&#xe0;" horiz-adv-x="1028" 
d="M414 1108l-287 276h350l170 -276h-233zM451 174q106 0 184 88v180h-35q-270 0 -270 -163q0 -51 35 -78t86 -27zM369 -25q-131 0 -216 75t-85 206q0 180 154 267q155 87 378 87h35v58q0 74 -37 106t-125 33q-135 0 -254 -94l-119 166q156 143 404 143q207 0 304 -87
t97 -282v-358q0 -168 29 -295h-268q-12 35 -17 106q-106 -131 -280 -131z" />
    <glyph glyph-name="aacute" unicode="&#xe1;" horiz-adv-x="1028" 
d="M373 1108l170 276h352l-287 -276h-235zM451 174q106 0 184 88v180h-35q-270 0 -270 -163q0 -51 35 -78t86 -27zM369 -25q-131 0 -216 75t-85 206q0 180 154 267q155 87 378 87h35v58q0 74 -37 106t-125 33q-135 0 -254 -94l-119 166q156 143 404 143q207 0 304 -87
t97 -282v-358q0 -168 29 -295h-268q-12 35 -17 106q-106 -131 -280 -131z" />
    <glyph glyph-name="acircumflex" unicode="&#xe2;" horiz-adv-x="1028" 
d="M147 1110l261 326h208l256 -326h-231l-131 135l-131 -135h-232zM451 174q106 0 184 88v180h-35q-270 0 -270 -163q0 -51 35 -78t86 -27zM369 -25q-131 0 -216 75t-85 206q0 180 154 267q155 87 378 87h35v58q0 74 -37 106t-125 33q-135 0 -254 -94l-119 166
q156 143 404 143q207 0 304 -87t97 -282v-358q0 -168 29 -295h-268q-12 35 -17 106q-106 -131 -280 -131z" />
    <glyph glyph-name="atilde" unicode="&#xe3;" horiz-adv-x="1028" 
d="M631 1118q-65 0 -135 36t-113 36t-104 -62l-125 109q35 61 95 107t132 47q73 0 141 -36t105 -36q63 0 114 63l125 -108q-92 -156 -235 -156zM451 174q106 0 184 88v180h-35q-270 0 -270 -163q0 -51 35 -78t86 -27zM369 -25q-131 0 -216 75t-85 206q0 180 154 267
q155 87 378 87h35v58q0 74 -37 106t-125 33q-135 0 -254 -94l-119 166q156 143 404 143q207 0 304 -87t97 -282v-358q0 -168 29 -295h-268q-12 35 -17 106q-106 -131 -280 -131z" />
    <glyph glyph-name="adieresis" unicode="&#xe4;" horiz-adv-x="1028" 
d="M725 1110q-66 0 -109 43t-43 103t43 104t109 43q66 0 109 -43q43 -44 43 -104t-43 -103t-109 -43zM295 1110q-66 0 -109 43t-43 103t43 104t109 43q67 0 109 -43q42 -44 42 -104t-42 -103t-109 -43zM451 174q106 0 184 88v180h-35q-270 0 -270 -163q0 -51 35 -78t86 -27z
M369 -25q-131 0 -216 75t-85 206q0 180 154 267q155 87 378 87h35v58q0 74 -37 106t-125 33q-135 0 -254 -94l-119 166q156 143 404 143q207 0 304 -87t97 -282v-358q0 -168 29 -295h-268q-12 35 -17 106q-106 -131 -280 -131z" />
    <glyph glyph-name="aring" unicode="&#xe5;" horiz-adv-x="1028" 
d="M510 1219q43 1 69 31t25 73q0 43 -25 73q-26 30 -69 30t-69 -30q-25 -30 -25 -73t25 -74q26 -30 69 -30zM510 1104q-90 0 -158 63t-68 155t68 155t158 63t158 -63t68 -155t-68 -155t-158 -63zM451 174q106 0 184 88v180h-35q-270 0 -270 -163q0 -51 35 -78t86 -27z
M369 -25q-131 0 -216 75t-85 206q0 180 154 267q155 87 378 87h35v58q0 74 -37 106t-125 33q-135 0 -254 -94l-119 166q156 143 404 143q207 0 304 -87t97 -282v-358q0 -168 29 -295h-268q-12 35 -17 106q-106 -131 -280 -131z" />
    <glyph glyph-name="ae" unicode="&#xe6;" horiz-adv-x="1628" 
d="M913 621h375q-8 205 -172 204q-170 1 -203 -204zM451 174q135 0 215 117q-27 68 -33 151h-33q-270 0 -270 -163q0 -51 35 -78t86 -27zM369 -25q-131 0 -216 75t-85 206q0 180 154 267q155 87 378 87h39v58q0 70 -38 104q-39 34 -145 35q-106 0 -237 -94l-119 166
q160 143 392 143t321 -117q129 117 323 117t307 -130q112 -130 111 -366q0 -29 -4 -90h-632q12 -118 74 -188t184 -70t256 70l88 -176q-172 -96 -371 -97q-262 0 -404 175q-157 -175 -376 -175z" />
    <glyph glyph-name="ccedilla" unicode="&#xe7;" horiz-adv-x="937" 
d="M688 -290q0 -75 -72 -128t-178 -53t-174 31l35 123q45 -23 104 -23q98 0 99 70q0 86 -146 77l68 187q-170 41 -266 176t-97 328q1 246 147 385t378 139q182 0 305 -80l-88 -186q-94 59 -210 59t-179 -84q-64 -84 -64 -227q0 -142 64 -230t181 -88q118 0 220 62l84 -182
q-137 -90 -321 -91h-5l-30 -88q65 -14 105 -58t40 -119z" />
    <glyph glyph-name="egrave" unicode="&#xe8;" horiz-adv-x="1062" 
d="M461 1108l-287 276h350l170 -276h-233zM350 621h373q-4 205 -172 204q-168 1 -201 -204zM584 -25q-246 -1 -384 143t-138 380t140 380q142 144 353 144t323 -128t111 -364q0 -29 -4 -94h-631q10 -118 72 -188t183 -70q120 0 259 70l88 -176q-171 -97 -372 -97z" />
    <glyph glyph-name="eacute" unicode="&#xe9;" horiz-adv-x="1062" 
d="M350 621h373q-4 205 -172 204q-168 1 -201 -204zM584 -25q-246 -1 -384 143t-138 380t140 380q142 144 353 144t323 -128t111 -364q0 -29 -4 -94h-631q10 -118 72 -188t183 -70q120 0 259 70l88 -176q-171 -97 -372 -97zM418 1108l170 276h352l-287 -276h-235z" />
    <glyph glyph-name="ecircumflex" unicode="&#xea;" horiz-adv-x="1062" 
d="M350 621h373q-4 205 -172 204q-168 1 -201 -204zM584 -25q-246 -1 -384 143t-138 380t140 380q142 144 353 144t323 -128t111 -364q0 -29 -4 -94h-631q10 -118 72 -188t183 -70q120 0 259 70l88 -176q-171 -97 -372 -97zM190 1110l261 326h208l256 -326h-231l-131 135
l-131 -135h-232z" />
    <glyph glyph-name="edieresis" unicode="&#xeb;" horiz-adv-x="1062" 
d="M350 621h373q-4 205 -172 204q-168 1 -201 -204zM584 -25q-246 -1 -384 143t-138 380t140 380q142 144 353 144t323 -128t111 -364q0 -29 -4 -94h-631q10 -118 72 -188t183 -70q120 0 259 70l88 -176q-171 -97 -372 -97zM768 1110q-66 0 -109 43t-43 103t43 104t109 43
q66 0 109 -43q43 -44 43 -104t-43 -103t-109 -43zM338 1110q-66 0 -109 43t-43 103t43 104t109 43q66 0 108 -43q42 -44 43 -104q-1 -60 -43 -103t-108 -43z" />
    <glyph glyph-name="igrave" unicode="&#xec;" horiz-adv-x="573" 
d="M193 1108l-287 276h350l170 -276h-233zM150 0v997h274v-997h-274z" />
    <glyph glyph-name="iacute" unicode="&#xed;" horiz-adv-x="573" 
d="M150 0v997h274v-997h-274zM154 1108l170 276h352l-287 -276h-235z" />
    <glyph glyph-name="icircumflex" unicode="&#xee;" horiz-adv-x="573" 
d="M150 0v997h274v-997h-274zM-74 1110l260 326h209l256 -326h-231l-131 135l-131 -135h-232z" />
    <glyph glyph-name="idieresis" unicode="&#xef;" horiz-adv-x="573" 
d="M150 0v997h274v-997h-274zM504 1110q-66 0 -109 43t-43 103t43 104t109 43q66 0 108 -43q42 -44 43 -104q-1 -60 -43 -103t-108 -43zM74 1110q-66 0 -109 43t-43 103t43 104t109 43q66 0 108 -43q42 -44 43 -104q-1 -60 -43 -103t-108 -43z" />
    <glyph glyph-name="eth" unicode="&#xf0;" horiz-adv-x="1144" 
d="M567 182q223 0 224 430q0 44 -3 68q-76 115 -229 115q-100 0 -153 -81q-54 -81 -54 -223q0 -141 56 -225t159 -84zM563 -25q-217 -1 -358 137t-141 376t132 374q132 137 326 137q139 0 219 -75q-49 168 -174 260l-137 -123l-106 110l88 80q-111 37 -256 37l55 211
q221 0 395 -69l139 126l109 -112l-102 -92q326 -223 325 -738q0 -287 -132 -463t-382 -176z" />
    <glyph glyph-name="ntilde" unicode="&#xf1;" horiz-adv-x="1140" 
d="M684 1118q-66 0 -136 36t-112 36q-43 0 -104 -62l-125 109q35 61 95 107t132 47q72 0 140 -36t106 -36q63 0 115 63l125 -108q-93 -156 -236 -156zM133 0v997h266v-125q127 150 318 150q155 0 227 -88t72 -236v-698h-273v643q0 78 -30 115q-31 37 -103 37
q-113 0 -204 -125v-670h-273z" />
    <glyph glyph-name="ograve" unicode="&#xf2;" horiz-adv-x="1126" 
d="M469 1108l-287 276h350l170 -276h-233zM565 182q211 0 211 314q0 147 -54 235t-167 88q-205 0 -205 -315q0 -146 52 -234t163 -88zM561 -25q-244 0 -372 154t-128 367q0 214 127 370t371 156q166 0 284 -78q222 -147 222 -440q0 -211 -130 -370t-374 -159z" />
    <glyph glyph-name="oacute" unicode="&#xf3;" horiz-adv-x="1126" 
d="M565 182q211 0 211 314q0 147 -54 235t-167 88q-205 0 -205 -315q0 -146 52 -234t163 -88zM561 -25q-244 0 -372 154t-128 367q0 214 127 370t371 156q166 0 284 -78q222 -147 222 -440q0 -211 -130 -370t-374 -159zM428 1108l170 276h352l-286 -276h-236z" />
    <glyph glyph-name="ocircumflex" unicode="&#xf4;" horiz-adv-x="1126" 
d="M565 182q211 0 211 314q0 147 -54 235t-167 88q-205 0 -205 -315q0 -146 52 -234t163 -88zM561 -25q-244 0 -372 154t-128 367q0 214 127 370t371 156q166 0 284 -78q222 -147 222 -440q0 -211 -130 -370t-374 -159zM201 1110l260 326h209l256 -326h-232l-131 135
l-131 -135h-231z" />
    <glyph glyph-name="otilde" unicode="&#xf5;" horiz-adv-x="1126" 
d="M684 1118q-66 0 -136 36t-112 36q-43 0 -104 -62l-125 109q35 61 95 107t132 47q72 0 140 -36t106 -36q63 0 115 63l125 -108q-93 -156 -236 -156zM565 182q211 0 211 314q0 147 -54 235t-167 88q-205 0 -205 -315q0 -146 52 -234t163 -88zM561 -25q-244 0 -372 154
t-128 367q0 214 127 370t371 156q166 0 284 -78q222 -147 222 -440q0 -211 -130 -370t-374 -159z" />
    <glyph glyph-name="odieresis" unicode="&#xf6;" horiz-adv-x="1126" 
d="M565 182q211 0 211 314q0 147 -54 235t-167 88q-205 0 -205 -315q0 -146 52 -234t163 -88zM561 -25q-244 0 -372 154t-128 367q0 214 127 370t371 156q166 0 284 -78q222 -147 222 -440q0 -211 -130 -370t-374 -159zM778 1110q-66 0 -108 43t-43 103q0 60 43 104
q42 44 108 43q66 0 109 -43q43 -44 43 -104t-43 -103t-109 -43zM348 1110q-66 0 -108 43t-43 103q0 60 43 104q42 44 108 43q66 0 109 -43q43 -44 43 -104t-43 -103t-109 -43z" />
    <glyph glyph-name="divide" unicode="&#xf7;" horiz-adv-x="1171" 
d="M82 397v205h1005v-205h-1005zM581 709q-62 0 -107 43q-44 43 -44 104q0 60 44 104t106 44t106 -43q43 -43 43 -105t-43 -104q-43 -43 -105 -43zM581 -6q-62 0 -107 43q-44 43 -44 104t44 105t106 43q62 0 106 -43q43 -42 43 -104t-43 -105t-105 -43z" />
    <glyph glyph-name="oslash" unicode="&#xf8;" horiz-adv-x="1126" 
d="M340 504q0 -86 18 -150l297 445q-43 25 -100 24q-215 0 -215 -319zM565 176q113 0 166 86t53 205t-26 199l-309 -457q53 -33 116 -33zM61 492q0 216 127 374q127 156 371 156q113 0 211 -39l119 178l153 -100l-122 -178q145 -147 145 -369t-130 -380q-130 -159 -374 -159
q-127 0 -227 45l-111 -157l-149 98l114 170q-127 145 -127 361z" />
    <glyph glyph-name="ugrave" unicode="&#xf9;" horiz-adv-x="1140" 
d="M475 1108l-287 276h351l170 -276h-234zM424 -25q-156 0 -228 88t-71 236v698h272v-643q0 -78 31 -114t102 -37q100 0 205 125v669h273v-710q0 -158 26 -287h-268q-16 53 -21 133q-124 -158 -321 -158z" />
    <glyph glyph-name="uacute" unicode="&#xfa;" horiz-adv-x="1140" 
d="M424 -25q-156 0 -228 88t-71 236v698h272v-643q0 -78 31 -114t102 -37q100 0 205 125v669h273v-710q0 -158 26 -287h-268q-16 53 -21 133q-124 -158 -321 -158zM434 1108l170 276h352l-286 -276h-236z" />
    <glyph glyph-name="ucircumflex" unicode="&#xfb;" horiz-adv-x="1140" 
d="M424 -25q-156 0 -228 88t-71 236v698h272v-643q0 -78 31 -114t102 -37q100 0 205 125v669h273v-710q0 -158 26 -287h-268q-16 53 -21 133q-124 -158 -321 -158zM207 1110l260 326h209l256 -326h-232l-131 135l-131 -135h-231z" />
    <glyph glyph-name="udieresis" unicode="&#xfc;" horiz-adv-x="1140" 
d="M424 -25q-156 0 -228 88t-71 236v698h272v-643q0 -78 31 -114t102 -37q100 0 205 125v669h273v-710q0 -158 26 -287h-268q-16 53 -21 133q-124 -158 -321 -158zM784 1110q-66 0 -108 43t-43 103q0 60 43 104q42 44 108 43q66 0 109 -43q43 -44 43 -104t-43 -103t-109 -43
zM354 1110q-66 0 -108 43t-43 103q0 60 43 104q42 44 108 43q66 0 109 -43q43 -44 43 -104t-43 -103t-109 -43z" />
    <glyph glyph-name="yacute" unicode="&#xfd;" horiz-adv-x="1058" 
d="M403 1108l170 276h353l-287 -276h-236zM160 -479q-92 0 -154 18l39 215q37 -10 115 -10t128 43q48 43 81 131l37 102l-375 977h291l225 -657h6l203 657h280l-411 -1103q-72 -193 -172 -283t-293 -90z" />
    <glyph glyph-name="thorn" unicode="&#xfe;" horiz-adv-x="1165" 
d="M582 186q100 0 155 82t55 228t-50 228q-50 81 -156 81t-180 -103v-448q76 -68 176 -68zM133 -449v1922h273v-574q104 123 282 123t286 -137t108 -379t-126 -386q-125 -144 -321 -145q-150 0 -229 72v-496h-273z" />
    <glyph glyph-name="ydieresis" unicode="&#xff;" horiz-adv-x="1058" 
d="M754 1110q-66 0 -109 43t-43 103t43 104t109 43q66 0 108 -43q42 -44 43 -104q-1 -60 -43 -103t-108 -43zM324 1110q-66 0 -109 43t-43 103t43 104t109 43q66 0 108 -43q42 -44 43 -104q-1 -60 -43 -103t-108 -43zM160 -479q-92 0 -154 18l39 215q37 -10 115 -10t128 43
q48 43 81 131l37 102l-375 977h291l225 -657h6l203 657h280l-411 -1103q-72 -193 -172 -283t-293 -90z" />
    <glyph glyph-name="dotlessi" unicode="&#x131;" horiz-adv-x="573" 
d="M150 0v997h274v-997h-274z" />
    <glyph glyph-name="Lslash" unicode="&#x141;" horiz-adv-x="1085" 
d="M190 0v479l-116 -86l-105 146l221 161v664h291v-459l199 148l104 -148l-303 -221v-451h508v-233h-799z" />
    <glyph glyph-name="lslash" unicode="&#x142;" horiz-adv-x="694" 
d="M188 0v506l-135 -92v207l135 92v762h273v-586l164 112v-208l-164 -113v-680h-273z" />
    <glyph glyph-name="OE" unicode="&#x152;" horiz-adv-x="1886" 
d="M778 209q115 0 195 35v874q-78 37 -189 37q-197 0 -300 -132t-103 -336t101 -341t296 -137zM784 -25q-328 0 -518 206t-190 499q0 190 78 348t241 259q164 101 383 102q98 0 207 -25h772v-238h-502v-307h441v-225h-441v-356h517v-238h-773q-104 -25 -215 -25z" />
    <glyph glyph-name="oe" unicode="&#x153;" horiz-adv-x="1775" 
d="M1059 621h373q-8 205 -172 204q-168 1 -201 -204zM565 182q211 0 211 314q0 147 -54 235t-167 88q-205 0 -205 -315q0 -146 52 -234t163 -88zM550 -25q-232 0 -361 154q-128 154 -128 367q0 214 127 370q128 156 364 156t366 -156q133 156 345 156q211 0 323 -130
t112 -366q0 -29 -4 -90h-633q11 -118 73 -188t185 -70t256 70l88 -176q-172 -96 -371 -97q-240 0 -377 158q-133 -158 -365 -158z" />
    <glyph glyph-name="Scaron" unicode="&#x160;" horiz-adv-x="1056" 
d="M470 -25q-242 0 -407 136l123 200q139 -102 293 -102q100 0 159 45q58 45 58 115t-63 111q-40 27 -124 67q-85 39 -118 55q-143 70 -218 162t-75 254t126 266t315 105q246 0 399 -115l-117 -203q-129 84 -266 84q-84 0 -133 -37q-49 -36 -49 -100t43 -101t83 -54
q188 -81 249 -118t117 -86q110 -96 110 -280q1 -184 -131 -294t-374 -110zM420 1468l-256 326h231l131 -135l131 135h232l-260 -326h-209z" />
    <glyph glyph-name="scaron" unicode="&#x161;" horiz-adv-x="860" 
d="M803 295q-1 -156 -105 -238t-304 -82t-341 95l92 190q119 -82 246 -82q164 0 164 90q0 40 -41 60q-41 21 -108 49q-68 28 -103 45q-113 53 -168 120q-55 66 -55 190t101 207t279 83t312 -80l-96 -186q-100 63 -225 63t-125 -88q0 -40 33 -59q52 -29 109 -48
q175 -59 266 -147q69 -66 69 -182zM322 1108l-256 326h231l131 -136l131 136h232l-261 -326h-208z" />
    <glyph glyph-name="Ydieresis" unicode="&#x178;" horiz-adv-x="1224" 
d="M834 1470q-66 0 -109 43t-43 103t43 104q43 43 109 43t108 -43t43 -103q-1 -59 -43 -103t-108 -44zM403 1470q-67 0 -109 43t-42 103t43 104q43 43 109 43t108 -43q43 -43 43 -103q0 -59 -43 -103t-109 -44zM475 0v514l-452 850h321l289 -580h2l287 580h280l-438 -850
v-514h-289z" />
    <glyph glyph-name="Zcaron" unicode="&#x17d;" horiz-adv-x="1169" 
d="M94 0v188l625 940h-598v236h948v-184l-631 -944h649v-236h-993zM492 1468l-256 326h231l131 -135l131 135h232l-261 -326h-208z" />
    <glyph glyph-name="zcaron" unicode="&#x17e;" horiz-adv-x="937" 
d="M80 0v147l434 646h-414v204h746v-157l-432 -635h436v-205h-770zM367 1108l-256 326h231l131 -136l131 136h232l-261 -326h-208z" />
    <glyph glyph-name="florin" unicode="&#x192;" horiz-adv-x="970" 
d="M119 -385q-133 0 -219 43l69 197q51 -29 119 -29q164 0 186 201l72 657h-211l27 203h209l22 219q45 393 441 393q160 0 264 -65l-88 -185q-64 41 -160 41t-140 -51t-55 -156l-22 -196h237l-32 -203h-228l-73 -666q-43 -403 -418 -403z" />
    <glyph glyph-name="dotlessj" unicode="&#x237;" horiz-adv-x="563" 
d="M76 -477q-119 0 -178 24l47 211q37 -12 78 -12q71 0 97 48t25 165v1038h275v-1067q0 -407 -344 -407z" />
    <glyph glyph-name="circumflex" unicode="&#x2c6;" horiz-adv-x="1024" 
d="M150 1110l260 326h208l256 -326h-231l-131 135l-131 -135h-231z" />
    <glyph glyph-name="caron" unicode="&#x2c7;" horiz-adv-x="1024" 
d="M406 1108l-256 326h231l131 -136l131 136h231l-260 -326h-208z" />
    <glyph glyph-name="breve" unicode="&#x2d8;" horiz-adv-x="1024" 
d="M512 1085q-135 0 -233 78t-113 232h223q10 -133 122 -133t124 133h221q-12 -152 -110 -231t-234 -79z" />
    <glyph glyph-name="dotaccent" unicode="&#x2d9;" horiz-adv-x="1024" 
d="M512 1139q-66 0 -109 43t-43 104q0 62 43 104t109 42t109 -42t43 -104t-43 -104q-43 -43 -109 -43z" />
    <glyph glyph-name="ring" unicode="&#x2da;" horiz-adv-x="1024" 
d="M512 1219q43 1 69 31t25 73q0 43 -25 73q-26 30 -69 30t-69 -30q-25 -30 -25 -73t25 -74q26 -30 69 -30zM512 1104q-90 0 -158 63t-68 155t68 155t158 63t158 -63t68 -155t-68 -155t-158 -63z" />
    <glyph glyph-name="ogonek" unicode="&#x2db;" horiz-adv-x="1024" 
d="M512 -471q-102 0 -168 54t-65 149q0 141 145 268h156q-111 -137 -111 -231t98 -95q39 0 84 19l33 -127q-70 -37 -172 -37z" />
    <glyph glyph-name="tilde" unicode="&#x2dc;" horiz-adv-x="1024" 
d="M633 1118q-65 0 -135 36t-113 36t-104 -62l-125 109q35 61 95 107t132 47q73 0 141 -36t105 -36q63 0 114 63l125 -108q-92 -156 -235 -156z" />
    <glyph glyph-name="hungarumlaut" unicode="&#x2dd;" horiz-adv-x="1024" 
d="M477 1108l189 276h315l-287 -276h-217zM63 1108l189 276h315l-286 -276h-218z" />
    <glyph glyph-name="Delta" unicode="&#x394;" horiz-adv-x="1347" 
d="M369 238h587l-219 579q-45 128 -59 180t-16 56h-5q-2 -4 -17 -58t-58 -178zM53 0v147l477 1217h275l491 -1217v-147h-1243z" />
    <glyph glyph-name="Omega" unicode="&#x3a9;" horiz-adv-x="1564" 
d="M90 0v223h258q-100 72 -168 210t-67 308q0 285 195 466q196 181 474 181t476 -180q196 -182 196 -467q0 -170 -69 -308t-168 -210h260v-223h-578v211q139 92 204 216t65 300t-110 302t-276 126t-276 -126t-109 -301q0 -175 65 -300t206 -217v-211h-578z" />
    <glyph glyph-name="mu" unicode="&#x3bc;" horiz-adv-x="1157" 
d="M127 -446v1443h272v-649q0 -72 27 -108t94 -37q115 0 217 125v669h273v-714q0 -168 24 -283h-268q-16 49 -21 133q-123 -139 -260 -149q-55 -4 -94 12h-6q8 -53 8 -205v-237h-266z" />
    <glyph glyph-name="pi" unicode="&#x3c0;" horiz-adv-x="1331" 
d="M1024 -25q-136 0 -202 76t-64 215v527h-252q0 -416 -55 -793h-275q63 395 64 793h-191v204h1215v-204h-236v-474q0 -65 15 -93t57 -28t76 25l63 -200q-79 -48 -215 -48z" />
    <glyph glyph-name="endash" unicode="&#x2013;" horiz-adv-x="1126" 
d="M98 444v211h930v-211h-930z" />
    <glyph glyph-name="emdash" unicode="&#x2014;" horiz-adv-x="1781" 
d="M98 444v211h1585v-211h-1585z" />
    <glyph glyph-name="quoteleft" unicode="&#x2018;" horiz-adv-x="460" 
d="M243 797q-73 0 -127 55t-54 147q0 93 44 193q45 100 101 172h170q-76 -102 -76 -193q0 -49 52 -107q53 -58 53 -120t-45 -105q-45 -42 -118 -42z" />
    <glyph glyph-name="quoteright" unicode="&#x2019;" horiz-adv-x="460" 
d="M162 1016q0 49 -53 106q-53 56 -53 120t45 106q46 42 119 41q73 1 127 -55t54 -148t-45 -192t-102 -173h-168q76 109 76 195z" />
    <glyph glyph-name="quotesinglbase" unicode="&#x201a;" horiz-adv-x="518" 
d="M84 164q0 62 46 104q46 41 119 41t127 -54t54 -146q0 -91 -46 -193t-101 -172h-168q76 109 75 193q0 49 -53 107t-53 120z" />
    <glyph glyph-name="quotedblleft" unicode="&#x201c;" horiz-adv-x="890" 
d="M673 797q-73 0 -128 55t-55 147q0 93 44 193q46 100 103 172h168q-76 -109 -76 -193q0 -49 53 -107q54 -58 54 -120t-45 -105q-45 -42 -118 -42zM397 944q1 -62 -45 -105q-46 -42 -119 -42t-128 55q-54 55 -54 147q0 93 45 193t103 172h168q-76 -109 -76 -193
q0 -49 53 -107t53 -120z" />
    <glyph glyph-name="quotedblright" unicode="&#x201d;" horiz-adv-x="890" 
d="M600 1016q0 49 -53 106q-53 56 -53 120t46 106t118 41q72 1 127 -55q54 -56 55 -146q0 -176 -146 -367h-170q76 109 76 195zM162 1016q0 49 -53 106q-53 56 -53 120t45 106q46 42 119 41q73 1 127 -55t54 -148t-45 -192t-102 -173h-168q76 109 76 195z" />
    <glyph glyph-name="quotedblbase" unicode="&#x201e;" horiz-adv-x="901" 
d="M600 -63q0 49 -53 107t-53 120t46 104q46 41 118 41t127 -54t55 -146q0 -91 -45 -193t-101 -172h-170q76 109 76 193zM162 -63q0 49 -53 107t-53 120t45 104q46 41 119 41t127 -54t54 -146q0 -91 -46 -193t-101 -172h-168q76 109 76 193z" />
    <glyph glyph-name="dagger" unicode="&#x2020;" horiz-adv-x="1142" 
d="M82 760v237h225l148 -18l-31 215v281h295v-281l-29 -215l146 18h225v-237h-225l-146 18l37 -258l-68 -868h-176l-69 868l41 258l-148 -18h-225z" />
    <glyph glyph-name="daggerdbl" unicode="&#x2021;" horiz-adv-x="1165" 
d="M424 -346v242l31 215l-148 -19h-225v240h225l148 -21l-39 234l39 233l-148 -18h-225v237h225l148 -18l-31 215v281h295v-281l-29 -215l146 18h225v-237h-225l-146 18l35 -233l-35 -234l146 21h225v-240h-225l-146 19l29 -215v-242h-295z" />
    <glyph glyph-name="bullet" unicode="&#x2022;" horiz-adv-x="897" 
d="M449 227q-150 -1 -256 105t-107 256q0 150 106 256t257 106q150 0 256 -106t106 -256t-106 -256t-256 -105z" />
    <glyph glyph-name="ellipsis" unicode="&#x2026;" horiz-adv-x="1554" 
d="M1265 -20q-75 0 -128 51t-53 124t52 123q54 50 129 50t127 -50t52 -123t-52 -124t-127 -51zM777 -20q-75 0 -127 51t-52 124t52 123t127 50t127 -50t52 -123t-52 -124t-127 -51zM291 -20q-76 0 -128 51t-52 124t52 123t128 50t128 -50t52 -123t-52 -124t-128 -51z" />
    <glyph glyph-name="perthousand" unicode="&#x2030;" horiz-adv-x="2549" 
d="M479 0l600 999h226l-598 -999h-228zM2152 141q117 0 117 153t-119 155q-121 0 -120 -150q0 -66 30 -112t92 -46zM2147 -25q-165 -1 -256 91t-91 225t93 228t259 95t257 -90t91 -223t-94 -229t-259 -97zM1384 141q115 0 115 152q0 67 -29 111t-90 45q-119 0 -118 -150
q0 -66 30 -112t92 -46zM1379 -25q-165 -1 -256 91t-91 225t93 228t259 95t256 -90t90 -224t-92 -230q-94 -96 -259 -95zM401 549q117 0 117 151q0 68 -29 112t-90 44q-119 0 -118 -147q-1 -68 29 -114t91 -46zM397 383q-166 0 -257 92t-91 224q0 131 93 227t260 96t257 -90
q91 -90 91 -223t-94 -229t-259 -97z" />
    <glyph glyph-name="guilsinglleft" unicode="&#x2039;" horiz-adv-x="655" 
d="M311 109l-245 393l245 395h287l-244 -395l244 -393h-287z" />
    <glyph glyph-name="guilsinglright" unicode="&#x203a;" horiz-adv-x="655" 
d="M57 109l246 395l-246 393h287l246 -393l-246 -395h-287z" />
    <glyph glyph-name="fraction" unicode="&#x2044;" horiz-adv-x="280" 
d="M-389 0l838 1364h215l-836 -1364h-217z" />
    <glyph glyph-name="uni2070" unicode="&#x2070;" horiz-adv-x="806" 
d="M401 829q115 0 115 193t-115 192q-51 0 -82 -48t-31 -144t32 -144q30 -48 81 -49zM402 666q-166 0 -252 101t-87 255q0 154 85 255t253 101t255 -102t87 -255t-87 -254t-254 -101z" />
    <glyph glyph-name="uni2074" unicode="&#x2074;" horiz-adv-x="741" 
d="M322 958h69v185h-2l-156 -191q27 6 89 6zM383 678v127h-348v127l360 434h199v-408h108v-153h-108v-127h-211z" />
    <glyph glyph-name="uni2075" unicode="&#x2075;" horiz-adv-x="643" 
d="M213 666q-92 0 -158 20l31 160q57 -20 123 -21q141 0 141 80t-160 80q-43 0 -98 -6l23 387h434v-160h-248l-6 -86q121 -4 199 -55t78 -161t-99 -174q-98 -64 -260 -64z" />
    <glyph glyph-name="uni2076" unicode="&#x2076;" horiz-adv-x="720" 
d="M367 813q41 0 65 22q24 21 23 57q0 36 -26 58t-78 21q-52 0 -83 -25v-14q0 -57 29 -88t70 -31zM357 666q-135 0 -212 87q-76 87 -75 228q0 178 131 288t354 109l47 -145q-270 -8 -328 -164q64 39 158 39t160 -53t66 -159t-84 -168q-82 -62 -217 -62z" />
    <glyph glyph-name="uni2077" unicode="&#x2077;" horiz-adv-x="657" 
d="M41 1194v172h547v-100l-281 -617l-190 66l223 479h-299z" />
    <glyph glyph-name="uni2078" unicode="&#x2078;" horiz-adv-x="704" 
d="M434 1184q0 29 -21 45q-22 16 -55 16q-32 0 -56 -16q-43 -30 -9 -72q20 -23 67 -47q74 45 74 74zM252 860q0 -27 28 -44t69 -17q42 0 69 17t26 44q0 37 -106 88q-86 -47 -86 -88zM350 666q-125 0 -207 50t-82 141t142 165q-121 72 -121 162t81 142t195 52t191 -50
q78 -50 78 -132t-129 -154q147 -76 147 -174t-85 -150t-210 -52z" />
    <glyph glyph-name="uni2079" unicode="&#x2079;" horiz-adv-x="722" 
d="M258 1155q0 -82 102 -82q51 0 84 23v16q0 55 -28 87q-29 32 -70 32q-40 0 -64 -22t-24 -54zM278 936q-92 0 -158 53q-67 53 -67 158t83 168q84 63 220 63t212 -87t77 -230q0 -177 -129 -287t-354 -110l-47 143q115 4 205 47t118 121q-68 -39 -160 -39z" />
    <glyph glyph-name="uni207A" unicode="&#x207a;" horiz-adv-x="679" 
d="M254 786v156h-178v156h178v155h172v-155h178v-156h-178v-156h-172z" />
    <glyph glyph-name="uni207B" unicode="&#x207b;" horiz-adv-x="628" 
d="M102 942v152h424v-152h-424z" />
    <glyph glyph-name="uni207D" unicode="&#x207d;" horiz-adv-x="489" 
d="M80 1020q0 147 60 262t147 182h202q-78 -61 -135 -181t-57 -264t55 -262t137 -192h-202q-207 176 -207 455z" />
    <glyph glyph-name="uni207E" unicode="&#x207e;" horiz-adv-x="489" 
d="M0 565q80 68 136 186t56 263t-56 265t-136 185h203q88 -68 146 -182t59 -264q0 -283 -205 -453h-203z" />
    <glyph glyph-name="uni2080" unicode="&#x2080;" horiz-adv-x="806" 
d="M401 -260q115 0 115 192t-115 193q-51 0 -82 -47q-31 -48 -31 -144t32 -145q30 -49 81 -49zM402 -422q-166 0 -252 101t-87 255q0 154 85 254t253 100t255 -100q87 -102 87 -255t-87 -254t-254 -101z" />
    <glyph glyph-name="uni2081" unicode="&#x2081;" horiz-adv-x="585" 
d="M219 -410v508l-149 -39l-45 162l247 55h158v-686h-211z" />
    <glyph glyph-name="uni2082" unicode="&#x2082;" horiz-adv-x="702" 
d="M51 -410v111q195 151 255 219t63 131q0 74 -83 74t-153 -64l-100 132q115 96 266 96q151 1 223 -59t72 -151t-64 -166t-178 -165q25 4 99 4h174v-162h-574z" />
    <glyph glyph-name="uni2083" unicode="&#x2083;" horiz-adv-x="659" 
d="M575 -199q0 -103 -95 -163q-94 -60 -238 -60t-201 23l41 155q59 -23 127 -22q141 0 141 67q0 72 -188 76v123q80 2 125 25t45 55q0 51 -72 51t-139 -41l-76 131q101 68 237 68t202 -42q66 -41 65 -111q0 -70 -43 -109t-105 -56v-2q70 -10 122 -51t52 -117z" />
    <glyph glyph-name="uni2084" unicode="&#x2084;" horiz-adv-x="741" 
d="M322 -131h69v186h-2l-156 -190q37 4 89 4zM383 -410v127h-348v127l360 432h199v-407h108v-152h-108v-127h-211z" />
    <glyph glyph-name="uni2085" unicode="&#x2085;" horiz-adv-x="643" 
d="M213 -422q-92 0 -158 21l31 157q66 -18 123 -18q141 0 141 80t-160 80q-61 0 -98 -9l23 387h434v-157h-248l-6 -88q121 -5 199 -55t78 -160t-99 -174q-98 -64 -260 -64z" />
    <glyph glyph-name="uni2086" unicode="&#x2086;" horiz-adv-x="720" 
d="M268 -156q0 -58 29 -88t70 -30t65 20t23 57q0 37 -26 59t-76 22t-85 -25v-15zM357 -422q-135 0 -212 87q-76 87 -75 229q0 178 131 286t354 109l47 -144q-270 -8 -328 -163q64 38 158 38t160 -54t66 -158t-84 -168q-82 -62 -217 -62z" />
    <glyph glyph-name="uni2087" unicode="&#x2087;" horiz-adv-x="657" 
d="M41 104v172h547v-98l-281 -618l-190 65l223 479h-299z" />
    <glyph glyph-name="uni2088" unicode="&#x2088;" horiz-adv-x="704" 
d="M434 97q0 57 -76 59q-36 0 -58 -16t-22 -30q1 -45 40 -65q20 -11 29 -17t13 -8q74 49 74 77zM350 -289q41 -1 68 17q43 28 20 67q-11 18 -39 33q-28 16 -61 33q-86 -53 -86 -88q0 -62 98 -62zM645 -220q0 -98 -85 -150t-210 -52t-207 50t-82 141t142 163
q-121 74 -121 163t80 141t194 53q114 0 193 -49q78 -50 78 -134t-129 -151q147 -76 147 -175z" />
    <glyph glyph-name="uni2089" unicode="&#x2089;" horiz-adv-x="722" 
d="M258 66q0 -82 101 -82q50 0 85 24v15q0 57 -28 89q-29 32 -70 32q-40 0 -64 -24q-24 -22 -24 -54zM278 -152q-90 0 -158 54q-67 54 -67 158t83 166q84 62 220 62t212 -85q76 -86 77 -230q0 -177 -129 -287t-354 -110l-47 143q115 2 205 45t118 121q-70 -37 -160 -37z" />
    <glyph glyph-name="Euro" unicode="&#x20ac;" horiz-adv-x="1202" 
d="M70 733v189h145q51 217 202 342t381 125t363 -89l-114 -213q-117 66 -240 66q-217 0 -293 -231h326v-189h-357v-41q0 -51 2 -76h355v-188h-320q76 -215 287 -215q141 0 256 84l113 -205q-162 -117 -377 -117t-371 113t-211 340h-147v188h120q-2 20 -2 68v49h-118z" />
    <glyph glyph-name="uni2117" unicode="&#x2117;" horiz-adv-x="1712" 
d="M774 752h88q156 0 156 133t-146 133h-98v-266zM584 311v854h309q153 0 235 -79q82 -80 82 -200t-86 -198t-262 -78h-88v-299h-190zM854 129q260 0 428 168t168 438q0 271 -168 439t-427 168t-427 -168t-168 -438t167 -439q167 -168 427 -168zM92 735q0 315 223 539
t539 225q316 0 540 -223q224 -222 224 -540t-224 -542t-539 -223t-539 225t-224 539z" />
    <glyph glyph-name="trademark" unicode="&#x2122;" horiz-adv-x="1513" 
d="M246 758v467h-178v139h524v-139h-176v-467h-170zM1032 944h4q26 89 39 123l107 297h174l80 -606h-174l-27 264q-6 74 -6 106h-4q0 -29 -33 -124l-90 -246h-150l-82 243q-36 112 -36 127h-5q0 -29 -8 -108l-28 -262h-156l82 606h170l108 -297q35 -98 35 -123z" />
    <glyph glyph-name="uni2126" unicode="&#x2126;" horiz-adv-x="1501" 
d="M86 0v219h240q-100 72 -171 212t-71 310q0 287 197 467t469 180t469 -180t196 -467q-1 -170 -71 -310t-170 -212h239v-219h-547v211q139 92 204 216t65 300t-110 302q-109 126 -275 126t-276 -126t-110 -301t66 -300q64 -125 205 -217v-211h-549z" />
    <glyph glyph-name="partialdiff" unicode="&#x2202;" horiz-adv-x="1290" 
d="M578 215q120 0 206 99t113 264q-43 36 -129 62t-177 26t-149 -71t-59 -168q0 -97 57 -155q58 -57 138 -57zM549 -23q-197 0 -332 129t-135 308q0 215 139 346t339 131t339 -70q-36 235 -209 321q-146 73 -381 75l68 249q20 2 65 2q362 0 565 -192q201 -193 201 -532
t-181 -553t-478 -214z" />
    <glyph glyph-name="uni2206" unicode="&#x2206;" horiz-adv-x="1705" 
d="M487 256h709l-354 829zM102 0l609 1436h262l608 -1436h-1479z" />
    <glyph glyph-name="product" unicode="&#x220f;" horiz-adv-x="1841" 
d="M348 -459v1649h-223v244h1548v-244h-223v-1649h-272v1649h-557v-1649h-273z" />
    <glyph glyph-name="summation" unicode="&#x2211;" horiz-adv-x="1347" 
d="M109 -299v178l559 819l-527 717v180h1088v-237h-770l487 -651l-524 -770h838v-236h-1151z" />
    <glyph glyph-name="minus" unicode="&#x2212;" horiz-adv-x="1126" 
d="M176 465v207h756v-207h-756z" />
    <glyph glyph-name="uni2219" unicode="&#x2219;" horiz-adv-x="528" 
d="M264 418q-76 0 -128 51t-52 125t52 125t128 51t128 -51t52 -125t-52 -125t-128 -51z" />
    <glyph glyph-name="radical" unicode="&#x221a;" horiz-adv-x="1191" 
d="M430 0l-383 997h289l221 -635h4l344 1113h277l-498 -1475h-254z" />
    <glyph glyph-name="infinity" unicode="&#x221e;" horiz-adv-x="1939" 
d="M1434 391q61 0 111 39t50 98q0 58 -51 96t-130 38t-255 -132q183 -139 275 -139zM515 391q79 0 257 133q-180 137 -272 138q-62 0 -114 -37t-52 -97t51 -98q51 -39 130 -39zM503 162q-179 0 -297 100t-118 258t123 266t303 107q180 0 457 -215q277 215 457 215t296 -100
t115 -259q0 -160 -123 -266t-303 -106t-452 215q-279 -215 -458 -215z" />
    <glyph glyph-name="uni2224" unicode="&#x2224;" horiz-adv-x="528" 
d="M264 418q-76 0 -128 51t-52 125t52 125t128 51t128 -51t52 -125t-52 -125t-128 -51z" />
    <glyph glyph-name="logicaland" unicode="&#x2227;" horiz-adv-x="528" 
d="M264 418q-76 0 -128 51t-52 125t52 125t128 51t128 -51t52 -125t-52 -125t-128 -51z" />
    <glyph glyph-name="integral" unicode="&#x222b;" horiz-adv-x="735" 
d="M70 -479q-121 0 -236 78l94 223q92 -43 164 -43q145 0 146 237v1178q0 190 116 317q117 127 322 127q125 0 235 -79l-98 -222q-92 43 -163 43q-72 0 -108 -64t-36 -173v-1178q0 -190 -114 -317t-322 -127z" />
    <glyph glyph-name="approxequal" unicode="&#x2248;" horiz-adv-x="1300" 
d="M438 967q100 1 220 -59t178 -60t118 32q61 32 109 85l102 -195q-57 -72 -148 -114t-191 -42t-222 60q-121 60 -180 59q-109 0 -205 -117l-110 191q57 72 143 116t186 44zM457 541q102 1 222 -59t181 -60q121 0 223 119l103 -197q-56 -72 -148 -113t-193 -41t-222 60
t-179 59q-108 0 -204 -119l-111 191q131 160 328 160z" />
    <glyph glyph-name="notequal" unicode="&#x2260;" horiz-adv-x="1361" 
d="M125 256v201h410l81 135h-491v201h614l172 282l181 -100l-117 -182h262v-201h-385l-82 -135h467v-201h-590l-196 -330l-179 99l140 231h-287z" />
    <glyph glyph-name="lessequal" unicode="&#x2264;" horiz-adv-x="1124" 
d="M131 -313v211h926v-211h-926zM1057 8l-926 414v188l926 412v-250l-645 -256l645 -256v-252z" />
    <glyph glyph-name="greaterequal" unicode="&#x2265;" horiz-adv-x="1187" 
d="M131 -313v211h926v-211h-926zM131 8v252l645 256l-645 256v250l926 -412v-188z" />
    <glyph glyph-name="dotmath" unicode="&#x22c5;" horiz-adv-x="528" 
d="M264 418q-76 0 -128 51t-52 125t52 125t128 51t128 -51t52 -125t-52 -125t-128 -51z" />
    <glyph glyph-name="lozenge" unicode="&#x25ca;" horiz-adv-x="1445" 
d="M743 258l308 438l-320 414l-309 -438zM621 -4l-521 670l516 716h232l524 -675l-514 -711h-237z" />
    <glyph glyph-name="numbersign.case" horiz-adv-x="1161" 
d="M465 578h211l33 223h-211zM197 0l57 381h-223l35 203h217l32 211h-219l33 200h217l57 369h185l-56 -369h201l58 369h186l-55 -369h206l-34 -200h-203l-33 -211h207l-33 -203h-205l-57 -381h-184l57 381h-205l-57 -381h-184z" />
    <glyph glyph-name="dollar.case" horiz-adv-x="1056" 
d="M369 1018q0 -84 86 -133v254q-86 -37 -86 -121zM700 362q0 83 -92 138v-269q92 48 92 131zM641 -242h-217v219q-223 16 -361 134l121 198q119 -94 271 -102v366q-37 14 -64 31q-143 70 -218 161t-75 239t90 246q90 97 236 126v230h217v-224q168 -18 297 -108l-115 -201
q-111 66 -215 80v-342q105 -50 152 -77q145 -86 188 -194q27 -69 27 -159q0 -152 -88 -253t-246 -136v-234z" />
    <glyph glyph-name="percent.case" horiz-adv-x="1777" 
d="M360 0l830 1364h225l-829 -1364h-226zM1356 150q72 0 108 52t35 131q0 79 -38 132q-37 53 -109 53t-109 -49t-37 -129t39 -135t111 -55zM1353 -20q-179 0 -279 103q-99 103 -99 249t100 252q99 106 279 106t278 -101t98 -249t-98 -254q-100 -106 -279 -106zM427 848
q73 0 109 51t35 131q0 80 -37 133q-38 53 -110 53t-109 -48q-37 -50 -37 -130t38 -135t111 -55zM423 678q-179 0 -278 102q-98 102 -98 248t99 252q98 106 278 106t279 -101t99 -249t-100 -253t-279 -105z" />
    <glyph glyph-name="parenleft.case" horiz-adv-x="710" 
d="M84 688q0 285 109 517t258 380h258q-131 -145 -231 -371t-101 -520q0 -537 332 -927h-258q-367 393 -367 921z" />
    <glyph glyph-name="parenright.case" horiz-adv-x="712" 
d="M336 675q0 525 -334 910h260q154 -158 260 -389t106 -521t-108 -522q-109 -232 -258 -386h-260q334 383 334 908z" />
    <glyph glyph-name="hyphen.case" horiz-adv-x="675" 
d="M104 600v219h467v-219h-467z" />
    <glyph glyph-name="slash.case" horiz-adv-x="921" 
d="M2 -330l651 1805h265l-652 -1805h-264z" />
    <glyph glyph-name="less.case" horiz-adv-x="870" 
d="M614 -6l-530 506l528 514l150 -154l-367 -356l371 -350z" />
    <glyph glyph-name="equal.case" horiz-adv-x="1077" 
d="M111 614v209h856v-209h-856zM111 231v207h856v-207h-856z" />
    <glyph glyph-name="greater.case" horiz-adv-x="870" 
d="M258 -6l-149 153l364 355l-371 352l152 160l532 -506z" />
    <glyph glyph-name="bracketleft.case" horiz-adv-x="698" 
d="M133 -225v1804h512v-203h-252v-1399h252v-202h-512z" />
    <glyph glyph-name="bracketright.case" horiz-adv-x="698" 
d="M53 -225v202h252v1399h-252v203h512v-1804h-512z" />
    <glyph glyph-name="braceleft.case" horiz-adv-x="831" 
d="M530 -225q-98 -1 -171 67t-72 189v348q0 201 -234 207v207q233 2 234 204v330q0 125 71 189q72 63 174 63h244v-203h-127q-59 0 -81 -35t-21 -104v-297q0 -193 -187 -246v-4q186 -59 187 -258v-317q0 -76 19 -107t83 -31h127v-202h-246z" />
    <glyph glyph-name="braceright.case" horiz-adv-x="831" 
d="M53 -225v202h127q61 0 83 35t22 107v319q0 190 186 244v4q-186 59 -186 260v295q1 76 -19 106t-84 29h-129v203h248q98 0 171 -67t73 -187v-328q0 -203 233 -204v-207q-233 -6 -233 -207v-350q0 -123 -73 -189t-173 -65h-246z" />
    <glyph glyph-name="exclamdown.case" horiz-adv-x="610" 
d="M152 0l51 903h217l51 -903h-319zM311 1049q-74 0 -123 48q-49 47 -49 117t49 120t123 50t123 -50t49 -120t-49 -118t-123 -47z" />
    <glyph glyph-name="guillemotleft.case" horiz-adv-x="1103" 
d="M766 311l-246 394l246 395h278l-243 -395l243 -394h-278zM311 311l-245 394l245 395h279l-244 -395l244 -394h-279z" />
    <glyph glyph-name="uni00AD.case" horiz-adv-x="675" 
d="M104 600v219h467v-219h-467z" />
    <glyph glyph-name="guillemotright.case" horiz-adv-x="1103" 
d="M514 311l244 394l-244 395h277l247 -395l-247 -394h-277zM57 311l246 394l-246 395h279l246 -395l-246 -394h-279z" />
    <glyph glyph-name="questiondown.case" horiz-adv-x="841" 
d="M522 1049q-74 0 -123 48q-49 47 -49 117t49 120t123 50t123 -50t49 -120t-49 -118t-123 -47zM482 -25q-200 1 -308 99q-109 98 -108 254q0 190 192 321q33 17 73 49q39 33 45 41q28 44 30 86v82h237v-108q0 -89 -33 -143q-32 -54 -108 -102t-109 -91t-33 -111
q0 -154 181 -153q78 0 176 49l94 -201q-129 -72 -329 -72z" />
    <glyph glyph-name="endash.case" horiz-adv-x="1126" 
d="M98 602v209h930v-209h-930z" />
    <glyph glyph-name="emdash.case" horiz-adv-x="1781" 
d="M98 602v209h1585v-209h-1585z" />
    <glyph glyph-name="perthousand.case" horiz-adv-x="2621" 
d="M360 0l830 1364h225l-829 -1364h-226zM2199 150q73 0 109 52t35 131q0 79 -38 132t-110 53q-73 0 -109 -49t-36 -129t38 -135t111 -55zM1819 332q0 146 100 252t278 106q177 0 277 -101t100 -250t-100 -254t-280 -105q-179 0 -277 103t-98 249zM1356 150q72 0 108 52
t35 131q0 79 -38 132q-37 53 -109 53t-109 -49t-37 -129t39 -135t111 -55zM1353 -20q-179 0 -279 103q-99 103 -99 249t100 252q99 106 279 106t278 -101t98 -249t-98 -254q-100 -106 -279 -106zM427 848q73 0 109 51t35 131q0 80 -37 133q-38 53 -110 53t-109 -48
q-37 -50 -37 -130t38 -135t111 -55zM423 678q-179 0 -278 102q-98 102 -98 248t99 252q98 106 278 106t279 -101t99 -249t-100 -253t-279 -105z" />
    <glyph glyph-name="guilsinglleft.case" horiz-adv-x="655" 
d="M311 311l-245 394l245 395h287l-244 -395l244 -394h-287z" />
    <glyph glyph-name="guilsinglright.case" horiz-adv-x="655" 
d="M57 311l246 394l-246 395h287l246 -395l-246 -394h-287z" />
    <glyph glyph-name="zero.dnom" horiz-adv-x="806" 
d="M401 150q115 0 115 192t-115 193q-51 1 -82 -47t-31 -144t32 -145q30 -49 81 -49zM402 -12q-166 0 -252 101t-87 255q0 154 85 254t253 100t255 -101t87 -254t-87 -254t-254 -101z" />
    <glyph glyph-name="one.dnom" horiz-adv-x="585" 
d="M219 0v508l-149 -39l-45 162l247 55h158v-686h-211z" />
    <glyph glyph-name="two.dnom" horiz-adv-x="702" 
d="M51 0v111q195 152 255 219t63 131q0 74 -83 74t-153 -64l-100 131q115 96 266 96t223 -59t72 -151t-64 -166t-178 -164q25 4 99 4h174v-162h-574z" />
    <glyph glyph-name="three.dnom" horiz-adv-x="659" 
d="M575 211q0 -103 -95 -163q-94 -60 -238 -60t-201 22l41 156q59 -23 127 -23q141 0 141 70t-188 74v123q80 2 125 24t45 55q0 51 -72 51t-139 -40l-76 131q101 67 237 67t202 -42t65 -111q0 -69 -43 -109t-105 -55v-2q70 -10 122 -51t52 -117z" />
    <glyph glyph-name="four.dnom" horiz-adv-x="741" 
d="M391 279v186h-2l-156 -191q37 4 89 5h69zM383 0v127h-348v127l360 432h199v-407h108v-152h-108v-127h-211z" />
    <glyph glyph-name="five.dnom" horiz-adv-x="643" 
d="M213 -12q-92 0 -158 20l31 158q66 -18 123 -19q141 0 141 80t-160 80q-61 0 -98 -8l23 387h434v-158h-248l-6 -88q121 -4 199 -54t78 -160t-99 -174q-98 -64 -260 -64z" />
    <glyph glyph-name="six.dnom" horiz-adv-x="720" 
d="M367 135q41 1 65 21t23 57q0 37 -26 59t-76 21q-50 0 -85 -25v-14q0 -59 29 -89t70 -30zM357 -12q-135 0 -212 87q-76 87 -75 228q0 178 131 287t354 108l47 -143q-270 -8 -328 -164q64 39 158 39t160 -54t66 -159t-84 -167q-82 -62 -217 -62z" />
    <glyph glyph-name="seven.dnom" horiz-adv-x="657" 
d="M41 514v172h547v-98l-281 -619l-190 66l223 479h-299z" />
    <glyph glyph-name="eight.dnom" horiz-adv-x="704" 
d="M434 507q0 58 -76 58q-36 0 -58 -15t-21 -39t16 -38q16 -13 25 -18q10 -7 14 -9t13 -8t13 -8q74 49 74 77zM350 121q41 0 76 22t12 62q-14 23 -100 65q-86 -53 -86 -88q0 -61 98 -61zM350 -12q-125 0 -207 50t-82 141t142 163q-121 74 -121 163t80 141t194 52t193 -49
q78 -49 78 -133t-129 -151q147 -75 147 -175t-85 -151t-210 -51z" />
    <glyph glyph-name="nine.dnom" horiz-adv-x="722" 
d="M258 475q0 -82 101 -82q50 0 85 25v14q0 57 -28 89q-29 32 -70 32q-40 0 -64 -23t-24 -55zM278 258q-90 0 -158 53q-67 53 -67 158t83 167q84 62 220 62t212 -86t77 -229q0 -177 -129 -287t-354 -110l-47 143q115 2 205 45t118 121q-70 -37 -160 -37z" />
    <glyph glyph-name="zero.lf" horiz-adv-x="1257" 
d="M367 682q0 -489 261 -489t261 489t-261 489t-261 -489zM76 682q0 287 122 485q62 101 173 161t255 60t254 -58q200 -108 270 -388q32 -123 32 -246q0 -240 -82 -415q-143 -306 -472 -306t-472 306q-80 171 -80 401z" />
    <glyph glyph-name="one.lf" horiz-adv-x="788" 
d="M340 0v1124l-262 -77l-58 215l381 102h211v-1364h-272z" />
    <glyph glyph-name="two.lf" horiz-adv-x="1056" 
d="M49 0v147q105 97 165 153t154 156q276 291 277 511q0 100 -52 150t-138 50q-154 0 -283 -129l-131 172q190 178 451 179q216 0 332 -108t116 -282q0 -209 -160 -415q-80 -102 -157 -185q-78 -82 -191 -186q88 6 150 6h389v-219h-922z" />
    <glyph glyph-name="three.lf" horiz-adv-x="999" 
d="M295 -25q-147 0 -234 27l43 217q74 -25 204 -25t214 56q84 55 84 164q0 108 -94 156t-283 51v188q154 4 247 62t93 153q0 143 -178 143q-129 0 -237 -84l-115 177q166 129 384 129q219 0 325 -86q106 -87 106 -219t-82 -214t-201 -114v-4q133 -14 231 -104t97 -236
q0 -205 -164 -321t-440 -116z" />
    <glyph glyph-name="four.lf" horiz-adv-x="1206" 
d="M680 496v510h-4l-357 -517q47 6 156 7h205zM678 0v283h-631v184l645 897h256v-868h199v-213h-199v-283h-270z" />
    <glyph glyph-name="five.lf" horiz-adv-x="962" 
d="M248 -25q-123 0 -197 23l41 219q76 -23 156 -22q152 0 245 61t93 182q0 229 -336 230q-88 0 -137 -9l41 705h682v-219h-435l-16 -266q231 -6 361 -116q130 -111 130 -323t-169 -338q-170 -126 -459 -127z" />
    <glyph glyph-name="six.lf" horiz-adv-x="1142" 
d="M362 545q0 -177 62 -269t164 -92q100 0 150 64t50 170q0 107 -53 165t-149 58q-135 0 -224 -82v-14zM590 -25q-254 0 -383 173t-129 427q0 371 230 592t626 222l57 -222q-532 0 -612 -405q106 86 280 86t296 -115t122 -313t-137 -322q-137 -123 -350 -123z" />
    <glyph glyph-name="seven.lf" horiz-adv-x="980" 
d="M39 1137v227h862v-150l-514 -1267l-246 84l451 1106h-553z" />
    <glyph glyph-name="eight.lf" horiz-adv-x="1081" 
d="M705 1034q0 68 -41 110t-116 42t-119 -41t-44 -105q0 -113 164 -209q156 100 156 203zM346 350q0 -78 50 -124t141 -46q92 0 142 48t50 123t-55 129t-158 112q-170 -111 -170 -242zM535 -25q-219 -1 -345 99t-124 266q0 215 264 360q-109 64 -166 140t-58 188
q0 160 126 260t320 100t312 -90t117 -254q0 -100 -66 -175t-178 -142q276 -141 277 -375q0 -174 -130 -276t-349 -101z" />
    <glyph glyph-name="nine.lf" horiz-adv-x="1140" 
d="M352 946q0 -223 222 -223q114 0 202 82v14q0 172 -62 266q-62 95 -160 95t-150 -64t-52 -170zM483 516q-177 0 -300 115q-122 115 -122 313q1 198 139 322q138 123 330 123t311 -86q220 -158 220 -526t-220 -591q-221 -223 -624 -223l-57 221q299 0 454 144
q115 106 146 276q-100 -88 -277 -88z" />
    <glyph glyph-name="exclam.sc" horiz-adv-x="546" 
d="M170 387l-45 684h299l-43 -684h-211zM273 -18q-69 0 -115 46t-45 109q0 63 46 107q47 44 115 45q68 0 114 -45q46 -46 46 -108t-46 -108t-115 -46z" />
    <glyph glyph-name="ampersand.sc" horiz-adv-x="1165" 
d="M324 301q0 -61 44 -96t122 -35q79 0 147 45l-219 236q-94 -63 -94 -150zM629 831q0 41 -28 66t-73 25q-44 0 -72 -25t-28 -75t82 -138q119 70 119 147zM444 -18q-176 0 -280 82t-104 203q0 122 58 194t175 131q-109 126 -109 240t96 187t248 73t240 -70t88 -164t-58 -161
t-175 -132l176 -188q47 82 65 178l213 -37q-31 -164 -139 -299l199 -219h-303l-66 72q-148 -90 -324 -90z" />
    <glyph glyph-name="question.sc" horiz-adv-x="733" 
d="M296 -18q-69 0 -115 46t-46 109t46 107t115 45q69 0 114 -44q45 -43 45 -107t-45 -110t-114 -46zM184 387v62q0 73 28 117t83 80t80 66t24 70q0 100 -135 101q-82 0 -143 -37l-88 182q119 64 291 64t264 -78t92 -206t-143 -233q-12 -8 -40 -26q-28 -17 -38 -27
q-9 -10 -31 -30t-22 -70v-35h-222z" />
    <glyph glyph-name="a.sc" horiz-adv-x="1196" 
d="M31 0l430 1071h262l442 -1071h-291l-69 186h-438l-66 -186h-270zM586 807h-4q0 -16 -62 -193l-84 -229h297l-84 229q-63 176 -63 193z" />
    <glyph glyph-name="b.sc" horiz-adv-x="1056" 
d="M410 635h98q90 0 130 31t40 96q0 115 -164 115h-104v-242zM410 197h118q98 0 144 28q45 29 45 101q0 133 -178 133h-129v-262zM141 0v1071h400q397 0 397 -272q0 -195 -199 -242v-4q104 -12 174 -79t70 -177q0 -297 -446 -297h-396z" />
    <glyph glyph-name="c.sc" horiz-adv-x="1067" 
d="M657 -18q-279 0 -429 158t-150 395t156 397t434 160q209 0 336 -91l-117 -198q-98 65 -229 65q-130 0 -210 -89t-80 -239t78 -243q76 -92 218 -92t247 78l105 -195q-144 -106 -359 -106z" />
    <glyph glyph-name="d.sc" horiz-adv-x="1226" 
d="M416 215h104q342 0 342 326q0 167 -85 241t-267 74h-94v-641zM141 0v1071h367q319 0 480 -139t161 -384q0 -244 -165 -396t-486 -152h-357z" />
    <glyph glyph-name="e.sc" horiz-adv-x="962" 
d="M141 0v1071h705v-213h-436v-211h389v-196h-389v-238h446v-213h-715z" />
    <glyph glyph-name="f.sc" horiz-adv-x="915" 
d="M141 0v1071h688v-215h-413v-238h368v-204h-368v-414h-275z" />
    <glyph glyph-name="g.sc" horiz-adv-x="1218" 
d="M670 -18q-274 0 -432 160q-160 160 -160 394q0 232 169 394t458 162q229 0 370 -95l-114 -200q-111 69 -268 69t-241 -86t-85 -242t79 -248q80 -93 240 -93q94 0 166 32v183h-190v192h450v-520q-168 -102 -442 -102z" />
    <glyph glyph-name="h.sc" horiz-adv-x="1288" 
d="M141 0v1071h275v-407h458v407h271v-1071h-271v442h-458v-442h-275z" />
    <glyph glyph-name="i.sc" horiz-adv-x="577" 
d="M152 0v1071h274v-1071h-274z" />
    <glyph glyph-name="j.sc" horiz-adv-x="604" 
d="M119 -350q-102 0 -187 31l41 213q43 -16 99 -16q116 -1 114 145v1048h277v-1079q0 -166 -92 -254t-252 -88z" />
    <glyph glyph-name="k.sc" horiz-adv-x="1114" 
d="M141 0v1071h273v-471l368 471h295l-391 -496l401 -575h-303l-370 528v-528h-273z" />
    <glyph glyph-name="l.sc" horiz-adv-x="917" 
d="M147 0v1071h273v-856h430v-215h-703z" />
    <glyph glyph-name="m.sc" horiz-adv-x="1529" 
d="M1092 664h-5q0 -16 -43 -156l-165 -508h-261l-165 508q-43 137 -43 156h-4q0 -57 -15 -160l-69 -504h-242l156 1071h264l207 -635l51 -178h4q29 106 53 178l217 635h264l152 -1071h-277l-63 504q-16 137 -16 160z" />
    <glyph glyph-name="n.sc" horiz-adv-x="1275" 
d="M385 0h-244v1071h273l358 -496q46 -63 109 -165l14 -25h4l-2 12l-6 166v508h244v-1071h-248l-389 537q-86 119 -115 174h-4l2 -11v-23l4 -124v-553z" />
    <glyph glyph-name="o.sc" horiz-adv-x="1331" 
d="M668 199q148 0 222 95q74 96 75 242q0 146 -74 242t-221 96q-146 0 -224 -95t-78 -240t76 -243q76 -97 224 -97zM672 -18q-278 0 -436 160t-158 390q0 232 156 396t432 164t432 -159t156 -393t-153 -396q-151 -162 -429 -162z" />
    <glyph glyph-name="p.sc" horiz-adv-x="1044" 
d="M412 557h98q203 0 203 160q0 80 -47 117t-148 36h-106v-313zM139 0v1071h402q199 0 319 -89t121 -265q0 -176 -124 -267t-345 -92h-100v-358h-273z" />
    <glyph glyph-name="q.sc" horiz-adv-x="1331" 
d="M670 195q148 0 222 95q74 96 75 244q0 148 -75 244q-76 96 -224 96t-225 -95t-77 -243t78 -244q78 -97 226 -97zM1025 -297q-142 -1 -257 63t-240 232q-210 38 -330 188t-120 364t156 378t432 164t432 -159t155 -392q0 -195 -106 -343t-303 -196q45 -55 88 -79
q42 -23 114 -23t125 43l86 -176q-90 -64 -232 -64z" />
    <glyph glyph-name="r.sc" horiz-adv-x="1089" 
d="M416 602h119q166 0 165 133q0 135 -178 135h-106v-268zM141 0v1071h398q209 0 321 -81t113 -222q0 -141 -71 -211t-179 -92v-2q68 -49 141 -166l195 -297h-293l-195 305q-49 72 -76 92q-28 20 -65 21h-14v-418h-275z" />
    <glyph glyph-name="s.sc" horiz-adv-x="901" 
d="M401 -18q-210 0 -342 98l107 190q113 -78 233 -77q78 -1 122 25t44 62t-13 59t-60 44q-48 21 -95 41t-80 35q-117 51 -176 124t-59 207t108 218q109 84 284 84t321 -86l-103 -191q-96 63 -224 63t-128 -90q0 -46 38 -71t95 -46q188 -69 272 -152q83 -83 82 -206
q0 -159 -108 -245t-318 -86z" />
    <glyph glyph-name="t.sc" horiz-adv-x="972" 
d="M348 0v852h-315v219h907v-219h-317v-852h-275z" />
    <glyph glyph-name="u.sc" horiz-adv-x="1232" 
d="M627 -18q-494 0 -494 462v627h275v-606q0 -143 51 -203t170 -61q119 0 169 61t50 193v616h252v-598q0 -239 -121 -365t-352 -126z" />
    <glyph glyph-name="v.sc" horiz-adv-x="1167" 
d="M600 287h4q0 25 53 176l211 608h269l-416 -1071h-260l-432 1071h295l221 -608q55 -158 55 -176z" />
    <glyph glyph-name="w.sc" horiz-adv-x="1579" 
d="M494 367h4q0 29 49 211l129 493h260l127 -491l45 -211h4q23 115 47 202l131 500h256l-305 -1071h-252l-143 551l-47 201h-4q-23 -113 -50 -201l-159 -551h-250l-303 1071h286l132 -504q43 -166 43 -200z" />
    <glyph glyph-name="x.sc" horiz-adv-x="1087" 
d="M39 0l356 551l-338 520h308l194 -317l182 317h271l-326 -520l358 -551h-299l-223 354l-211 -354h-272z" />
    <glyph glyph-name="y.sc" horiz-adv-x="1046" 
d="M391 0v403l-371 668h302l217 -430h4l215 430h266l-356 -668v-403h-277z" />
    <glyph glyph-name="z.sc" horiz-adv-x="995" 
d="M84 0v174l489 680h-471v217h801v-172l-491 -684h508v-215h-836z" />
    <glyph glyph-name="exclamdown.sc" horiz-adv-x="546" 
d="M125 0l43 684h209l45 -684h-297zM436 934q0 -62 -47 -108t-116 -46t-115 45t-45 109q0 64 46 108q47 45 115 45t115 -45t47 -108z" />
    <glyph glyph-name="mu.sc" horiz-adv-x="1529" 
d="M1092 664h-5q0 -16 -43 -156l-165 -508h-261l-165 508q-43 137 -43 156h-4q0 -57 -15 -160l-69 -504h-242l156 1071h264l207 -635l51 -178h4q29 106 53 178l217 635h264l152 -1071h-277l-63 504q-16 137 -16 160z" />
    <glyph glyph-name="questiondown.sc" horiz-adv-x="733" 
d="M436 782q-70 0 -114 44t-46 108q0 64 46 109q46 47 114 47q70 0 116 -46t46 -110t-46 -108t-116 -44zM409 -20q-171 0 -264 77q-92 78 -92 206t144 233q8 6 46 32t48 35q35 35 37 86v35h219v-61q0 -127 -111 -199q-53 -35 -78 -65t-24 -70q0 -100 133 -101q80 0 145 37
l86 -182q-118 -63 -289 -63z" />
    <glyph glyph-name="germandbls.sc" horiz-adv-x="1798" 
d="M1298 -18q-210 0 -342 98l107 190q113 -78 233 -77q78 -1 122 25t44 62t-13 59t-60 44q-48 21 -95 41t-80 35q-117 53 -176 126t-59 205t107 218q108 84 284 84t322 -86l-103 -191q-96 63 -224 63t-128 -90q0 -46 38 -71t95 -46q188 -69 272 -152q83 -83 82 -206
q0 -159 -108 -245t-318 -86zM401 -18q-210 0 -342 98l107 190q113 -78 233 -77q78 -1 122 25t44 62t-13 59t-60 44q-48 21 -95 41t-80 35q-117 53 -176 126t-59 205t108 218q109 84 284 84t321 -86l-103 -191q-96 63 -224 63t-128 -90q0 -46 38 -71t95 -46q188 -69 272 -152
q83 -83 82 -206q0 -159 -108 -245t-318 -86z" />
    <glyph glyph-name="agrave.sc" horiz-adv-x="1196" 
d="M502 1165l-287 277h350l170 -277h-233zM31 0l430 1071h262l442 -1071h-291l-69 186h-438l-66 -186h-270zM586 807h-4q0 -16 -62 -193l-84 -229h297l-84 229q-63 176 -63 193z" />
    <glyph glyph-name="aacute.sc" horiz-adv-x="1196" 
d="M31 0l430 1071h262l442 -1071h-291l-69 186h-438l-66 -186h-270zM586 807h-4q0 -16 -62 -193l-84 -229h297l-84 229q-63 176 -63 193zM461 1165l170 277h352l-287 -277h-235z" />
    <glyph glyph-name="acircumflex.sc" horiz-adv-x="1196" 
d="M31 0l430 1071h262l442 -1071h-291l-69 186h-438l-66 -186h-270zM586 807h-4q0 -16 -62 -193l-84 -229h297l-84 229q-63 176 -63 193zM233 1167l261 326h208l256 -326h-231l-131 136l-131 -136h-232z" />
    <glyph glyph-name="atilde.sc" horiz-adv-x="1196" 
d="M717 1176q-65 0 -135 36t-113 35q-43 0 -104 -61l-125 108q35 62 95 108t132 46q73 0 141 -36t105 -36q63 0 114 64l125 -109q-92 -155 -235 -155zM31 0l430 1071h262l442 -1071h-291l-69 186h-438l-66 -186h-270zM586 807h-4q0 -16 -62 -193l-84 -229h297l-84 229
q-63 176 -63 193z" />
    <glyph glyph-name="adieresis.sc" horiz-adv-x="1196" 
d="M31 0l430 1071h262l442 -1071h-291l-69 186h-438l-66 -186h-270zM586 807h-4q0 -16 -62 -193l-84 -229h297l-84 229q-63 176 -63 193zM811 1167q-66 0 -109 43q-43 44 -43 104t43 103t109 43t109 -43t43 -103t-43 -104t-109 -43zM381 1167q-66 0 -109 43q-43 44 -43 104
t43 103t109 43q67 0 109 -43t42 -103t-42 -104t-109 -43z" />
    <glyph glyph-name="aring.sc" horiz-adv-x="1196" 
d="M31 0l430 1071h262l442 -1071h-291l-69 186h-438l-66 -186h-270zM586 807h-4q0 -16 -62 -193l-84 -229h297l-84 229q-63 176 -63 193zM596 1276q43 0 69 31q25 31 25 73t-25 73q-26 30 -69 30t-69 -30q-25 -30 -25 -73q0 -44 26 -74t68 -30zM596 1161q-90 -1 -158 63
t-68 155t68 155q68 63 158 63t158 -63q68 -62 68 -154t-68 -156t-158 -63z" />
    <glyph glyph-name="ae.sc" horiz-adv-x="1490" 
d="M705 395v398l-226 -398h226zM1386 1071v-215h-415v-209h366v-196h-366v-236h426v-215h-692v195h-334l-111 -195h-295l637 1071h784z" />
    <glyph glyph-name="ccedilla.sc" horiz-adv-x="1067" 
d="M803 -290q1 -75 -71 -128t-178 -53t-175 31l35 123q45 -23 104 -23q98 0 98 70q0 86 -145 77l68 183q-223 36 -342 186t-119 372t156 384q156 160 434 160q209 0 336 -91l-117 -198q-98 65 -229 65q-130 0 -210 -89t-80 -239t78 -243q76 -92 218 -92t247 78l105 -195
q-127 -96 -324 -104l-35 -97q66 -14 106 -58t40 -119z" />
    <glyph glyph-name="egrave.sc" horiz-adv-x="962" 
d="M141 0v1071h705v-213h-436v-211h389v-196h-389v-238h446v-213h-715zM399 1165l-286 277h350l170 -277h-234z" />
    <glyph glyph-name="eacute.sc" horiz-adv-x="962" 
d="M141 0v1071h705v-213h-436v-211h389v-196h-389v-238h446v-213h-715zM356 1165l170 277h353l-287 -277h-236z" />
    <glyph glyph-name="ecircumflex.sc" horiz-adv-x="962" 
d="M141 0v1071h705v-213h-436v-211h389v-196h-389v-238h446v-213h-715zM131 1167l260 326h209l256 -326h-231l-131 136l-132 -136h-231z" />
    <glyph glyph-name="edieresis.sc" horiz-adv-x="962" 
d="M141 0v1071h705v-213h-436v-211h389v-196h-389v-238h446v-213h-715zM709 1167q-66 0 -109 43q-43 44 -43 104t43 103t109 43q67 0 109 -43t42 -103t-42 -104t-109 -43zM279 1167q-66 0 -109 43q-43 44 -43 104t43 103t109 43q67 0 109 -43t42 -103t-42 -104t-109 -43z
" />
    <glyph glyph-name="igrave.sc" horiz-adv-x="577" 
d="M193 1165l-287 277h350l170 -277h-233zM152 0v1071h274v-1071h-274z" />
    <glyph glyph-name="iacute.sc" horiz-adv-x="577" 
d="M152 0v1071h274v-1071h-274zM154 1165l170 277h352l-287 -277h-235z" />
    <glyph glyph-name="icircumflex.sc" horiz-adv-x="577" 
d="M152 0v1071h274v-1071h-274zM-74 1167l260 326h209l256 -326h-231l-131 136l-131 -136h-232z" />
    <glyph glyph-name="idieresis.sc" horiz-adv-x="577" 
d="M152 0v1071h274v-1071h-274zM504 1167q-66 0 -109 43q-43 44 -43 104t43 103t109 43t108 -43t43 -103q-1 -60 -43 -104t-108 -43zM74 1167q-66 0 -109 43q-43 44 -43 104t43 103t109 43t108 -43t43 -103q-1 -60 -43 -104t-108 -43z" />
    <glyph glyph-name="eth.sc" horiz-adv-x="1226" 
d="M416 215h104q342 0 342 326q0 167 -85 241t-267 74h-94v-229h207v-195h-207v-217zM141 0v432h-104v195h104v444h367q319 0 480 -139t161 -384q0 -244 -165 -396t-486 -152h-357z" />
    <glyph glyph-name="ntilde.sc" horiz-adv-x="1275" 
d="M756 1176q-66 0 -136 36t-112 35q-43 0 -105 -61l-124 108q35 62 95 108t132 46t140 -36t106 -36q63 0 114 64l125 -109q-92 -155 -235 -155zM385 0h-244v1071h273l358 -496q46 -63 109 -165l14 -25h4l-2 12l-6 166v508h244v-1071h-248l-389 537q-86 119 -115 174h-4
l2 -11v-23l4 -124v-553z" />
    <glyph glyph-name="ograve.sc" horiz-adv-x="1331" 
d="M569 1165l-286 277h350l170 -277h-234zM668 199q148 0 222 95q74 96 75 242q0 146 -74 242t-221 96q-146 0 -224 -95t-78 -240t76 -243q76 -97 224 -97zM672 -18q-278 0 -436 160t-158 390q0 232 156 396t432 164t432 -159t156 -393t-153 -396q-151 -162 -429 -162z" />
    <glyph glyph-name="oacute.sc" horiz-adv-x="1331" 
d="M668 199q148 0 222 95q74 96 75 242q0 146 -74 242t-221 96q-146 0 -224 -95t-78 -240t76 -243q76 -97 224 -97zM672 -18q-278 0 -436 160t-158 390q0 232 156 396t432 164t432 -159t156 -393t-153 -396q-151 -162 -429 -162zM530 1165l170 277h353l-287 -277h-236z" />
    <glyph glyph-name="ocircumflex.sc" horiz-adv-x="1331" 
d="M668 199q148 0 222 95q74 96 75 242q0 146 -74 242t-221 96q-146 0 -224 -95t-78 -240t76 -243q76 -97 224 -97zM672 -18q-278 0 -436 160t-158 390q0 232 156 396t432 164t432 -159t156 -393t-153 -396q-151 -162 -429 -162zM303 1167l260 326h209l256 -326h-231
l-131 136l-131 -136h-232z" />
    <glyph glyph-name="otilde.sc" horiz-adv-x="1331" 
d="M786 1176q-66 0 -136 36t-112 35q-42 0 -104 -61l-125 108q35 62 95 108t132 46t142 -36q68 -36 104 -36q63 0 115 64l125 -109q-93 -155 -236 -155zM668 199q148 0 222 95q74 96 75 242q0 146 -74 242t-221 96q-146 0 -224 -95t-78 -240t76 -243q76 -97 224 -97z
M672 -18q-278 0 -436 160t-158 390q0 232 156 396t432 164t432 -159t156 -393t-153 -396q-151 -162 -429 -162z" />
    <glyph glyph-name="odieresis.sc" horiz-adv-x="1331" 
d="M668 199q148 0 222 95q74 96 75 242q0 146 -74 242t-221 96q-146 0 -224 -95t-78 -240t76 -243q76 -97 224 -97zM672 -18q-278 0 -436 160t-158 390q0 232 156 396t432 164t432 -159t156 -393t-153 -396q-151 -162 -429 -162zM881 1167q-66 0 -109 43q-43 44 -43 104
t43 103t109 43q67 0 109 -43t42 -103t-42 -104t-109 -43zM451 1167q-66 0 -109 43q-43 44 -43 104t43 103t109 43q67 0 109 -43t42 -103t-42 -104t-109 -43z" />
    <glyph glyph-name="oslash.sc" horiz-adv-x="1331" 
d="M666 199q150 0 224 95t75 220q0 125 -37 207l-381 -502q56 -20 119 -20zM369 555q0 -129 43 -211l383 506q-51 25 -125 24q-147 0 -224 -95t-77 -224zM78 526q0 238 156 402q157 164 432 164q147 0 268 -52l108 146l164 -115l-106 -141q154 -158 154 -392t-154 -395
q-152 -162 -430 -161q-147 0 -260 47l-111 -154l-166 113l111 145q-166 155 -166 393z" />
    <glyph glyph-name="ugrave.sc" horiz-adv-x="1232" 
d="M627 -18q-494 0 -494 462v627h275v-606q0 -143 51 -203t170 -61q119 0 169 61t50 193v616h252v-598q0 -239 -121 -365t-352 -126zM522 1165l-286 277h350l170 -277h-234z" />
    <glyph glyph-name="uacute.sc" horiz-adv-x="1232" 
d="M627 -18q-494 0 -494 462v627h275v-606q0 -143 51 -203t170 -61q119 0 169 61t50 193v616h252v-598q0 -239 -121 -365t-352 -126zM481 1165l170 277h353l-287 -277h-236z" />
    <glyph glyph-name="ucircumflex.sc" horiz-adv-x="1232" 
d="M627 -18q-494 0 -494 462v627h275v-606q0 -143 51 -203t170 -61q119 0 169 61t50 193v616h252v-598q0 -239 -121 -365t-352 -126zM254 1167l260 326h209l256 -326h-231l-132 136l-131 -136h-231z" />
    <glyph glyph-name="udieresis.sc" horiz-adv-x="1232" 
d="M627 -18q-494 0 -494 462v627h275v-606q0 -143 51 -203t170 -61q119 0 169 61t50 193v616h252v-598q0 -239 -121 -365t-352 -126zM831 1167q-67 0 -109 43q-42 44 -42 104t43 103t109 43t108 -43q43 -43 43 -103t-43 -104t-109 -43zM401 1167q-67 0 -109 43
q-42 44 -42 104t43 103t109 43t108 -43q43 -43 43 -103t-43 -104t-109 -43z" />
    <glyph glyph-name="yacute.sc" horiz-adv-x="1046" 
d="M391 0v403l-371 668h302l217 -430h4l215 430h266l-356 -668v-403h-277zM393 1165l170 277h352l-286 -277h-236z" />
    <glyph glyph-name="thorn.sc" horiz-adv-x="1048" 
d="M412 397h104q203 0 203 160q0 80 -47 117t-148 37h-112v-314zM139 0v1071h273v-160h135q199 0 319 -88t121 -265q0 -177 -124 -268t-345 -91h-106v-199h-273z" />
    <glyph glyph-name="ydieresis.sc" horiz-adv-x="1046" 
d="M391 0v403l-371 668h302l217 -430h4l215 430h266l-356 -668v-403h-277zM743 1167q-67 0 -109 43q-42 44 -42 104t43 103t109 43t108 -43q43 -43 43 -103t-43 -104t-109 -43zM313 1167q-67 0 -109 43q-42 44 -42 104t43 103t109 43t108 -43q43 -43 43 -103t-43 -104
t-109 -43z" />
    <glyph glyph-name="dotlessi.sc" horiz-adv-x="577" 
d="M152 0v1071h274v-1071h-274z" />
    <glyph glyph-name="lslash.sc" horiz-adv-x="933" 
d="M164 0v342l-88 -59l-94 145l182 127v516h274v-336l164 115l96 -148l-260 -178v-309h430v-215h-704z" />
    <glyph glyph-name="oe.sc" horiz-adv-x="1615" 
d="M666 199q96 0 157 30v609q-63 37 -153 36q-150 0 -227 -95t-77 -240t77 -243q78 -97 223 -97zM672 -18q-278 0 -436 160t-158 390q0 232 156 396q157 164 430 164q96 0 182 -21h655v-215h-414v-209h367v-196h-367v-236h426v-215h-671q-84 -18 -170 -18z" />
    <glyph glyph-name="scaron.sc" horiz-adv-x="901" 
d="M401 -18q-210 0 -342 98l107 190q113 -78 233 -77q78 -1 122 25t44 62t-13 59t-60 44q-48 21 -95 41t-80 35q-117 51 -176 124t-59 207t108 218q109 84 284 84t321 -86l-103 -191q-96 63 -224 63t-128 -90q0 -46 38 -71t95 -46q188 -69 272 -152q83 -83 82 -206
q0 -159 -108 -245t-318 -86zM350 1165l-256 326h232l131 -135l131 135h231l-260 -326h-209z" />
    <glyph glyph-name="zcaron.sc" horiz-adv-x="995" 
d="M84 0v174l489 680h-471v217h801v-172l-491 -684h508v-215h-836zM395 1165l-256 326h232l131 -135l131 135h231l-260 -326h-209z" />
    <glyph glyph-name="pi.sc" horiz-adv-x="1269" 
d="M141 0v1071h987v-1071h-272v850h-440v-850h-275z" />
    <glyph glyph-name="fi.sc" horiz-adv-x="1505" 
d="M1067 0v1071h274v-1071h-274zM141 0v1071h688v-215h-413v-238h368v-204h-368v-414h-275z" />
    <glyph glyph-name="fl.sc" horiz-adv-x="1832" 
d="M1063 0v1071h272v-856h430v-215h-702zM141 0v1071h688v-215h-413v-238h368v-204h-368v-414h-275z" />
    <glyph glyph-name="slash.ss01" horiz-adv-x="851" 
d="M-47 -231l835 1706h250l-833 -1706h-252z" />
    <glyph glyph-name="pi.ss01" horiz-adv-x="1447" 
d="M297 -201v957h-223v243h1282v-243h-258v-363q0 -162 71 -162q59 0 125 33l88 -192q-96 -94 -260 -95q-289 0 -288 318v461h-267v-957h-270z" />
    <glyph glyph-name="parenleft.subs" horiz-adv-x="489" 
d="M80 340q0 147 60 263t147 183h202q-78 -63 -135 -182t-57 -263t55 -262t137 -192h-202q-207 176 -207 453z" />
    <glyph glyph-name="parenright.subs" horiz-adv-x="489" 
d="M0 -113q80 68 136 186t56 262t-56 265t-136 186h203q88 -68 146 -182t59 -266q0 -285 -205 -451h-203z" />
    <glyph glyph-name="plus.subs" horiz-adv-x="679" 
d="M254 106v156h-178v158h178v153h172v-153h178v-158h-178v-156h-172z" />
    <glyph glyph-name="minus.subs" horiz-adv-x="628" 
d="M102 262v154h424v-154h-424z" />
    <glyph glyph-name="zero.tf" 
d="M362 682q0 -489 206 -489t206 489t-206 489t-206 -489zM1067 682q0 -410 -212 -602q-116 -106 -287 -105q-170 -1 -286 105q-210 191 -210 602q0 286 109 485q57 101 155 161t229 60t231 -58q100 -60 156 -162q115 -206 115 -486z" />
    <glyph glyph-name="one.tf" 
d="M160 0v223h311v901l-291 -88l-55 215l407 111h211v-1139h310v-223h-893z" />
    <glyph glyph-name="two.tf" 
d="M74 0v147q343 310 469 493q125 183 125 327q0 98 -52 149t-137 51q-154 0 -284 -127l-129 172q180 176 442 177q215 0 335 -108q120 -109 120 -293q1 -184 -133 -372t-367 -403q88 6 149 6h400v-219h-938z" />
    <glyph glyph-name="three.tf" 
d="M397 -25q-174 0 -295 39l48 215q100 -35 241 -35t224 57q83 56 83 159q0 211 -405 211v188q158 4 263 62t106 153q0 70 -54 106t-145 37q-150 0 -268 -100l-109 176q168 145 430 146q198 0 314 -85q116 -86 116 -218t-88 -215t-209 -115v-4q135 -14 239 -106t103 -234
q0 -199 -165 -318t-429 -119z" />
    <glyph glyph-name="four.tf" 
d="M442 479h209v529h-4l-346 -533q33 4 141 4zM645 0v266h-618v185l635 913h256v-885h167v-213h-167v-266h-273z" />
    <glyph glyph-name="five.tf" 
d="M373 -25q-164 0 -254 27l43 219q86 -27 220 -27t227 63q93 62 93 181q0 229 -362 230q-104 0 -166 -11l41 707h733v-219h-487l-17 -266q246 -5 398 -111t152 -323t-170 -343t-451 -127z" />
    <glyph glyph-name="six.tf" 
d="M770 418q0 223 -210 223q-108 0 -200 -82v-14q0 -177 62 -269t157 -92t143 64t48 170zM582 -25q-128 -1 -228 49t-158 135q-118 173 -118 416q0 371 224 592t618 222l57 -222q-516 -4 -598 -405q102 86 271 86t289 -116t120 -314t-135 -320q-135 -123 -342 -123z" />
    <glyph glyph-name="seven.tf" 
d="M84 1137v227h946v-150l-608 -1267l-240 84l535 1106h-633z" />
    <glyph glyph-name="eight.tf" 
d="M576 1186q-78 0 -128 -42t-51 -104q1 -105 181 -209q80 51 126 99t46 108q0 62 -48 105t-126 43zM565 180q94 0 151 48q56 48 56 121t-60 128t-169 115q-86 -54 -136 -110q-51 -56 -51 -132t58 -123t151 -47zM1057 352q-1 -174 -137 -276t-359 -101q-223 -1 -353 99
t-130 266q0 213 278 360q-113 66 -175 142t-62 186q0 158 131 259q130 101 328 101t322 -90t124 -258t-258 -313q291 -145 291 -375z" />
    <glyph glyph-name="nine.tf" 
d="M561 723q119 0 211 82v14q0 172 -58 266q-58 95 -154 95t-142 -64q-47 -64 -47 -162q0 -231 190 -231zM485 516q-167 0 -286 115t-119 313t134 322q134 123 322 123t306 -86q213 -157 213 -526q1 -370 -211 -592t-613 -222l-57 221q229 2 384 104t198 316
q-104 -88 -271 -88z" />
    <glyph glyph-name="zero.tosf" 
d="M570 193q97 0 153 79q55 80 55 224t-57 226q-57 83 -153 83t-152 -79t-56 -222t56 -227t154 -84zM567 -25q-245 0 -371 156q-126 157 -126 361t118 360q58 78 158 124t225 46q244 0 371 -154t127 -358t-120 -364q-57 -77 -157 -124t-225 -47z" />
    <glyph glyph-name="one.tosf" 
d="M168 0v217h307v545l-274 -86l-56 215l390 106h210v-780h304v-217h-881z" />
    <glyph glyph-name="two.tosf" 
d="M82 0v123q307 213 391 285q184 158 184 266q0 133 -154 133t-288 -111l-125 168q186 160 440 160q193 0 307 -74q113 -74 113 -226t-140 -287q-73 -69 -131 -113t-163 -115q57 8 131 8h381v-217h-946z" />
    <glyph glyph-name="three.tosf" 
d="M375 -385q-168 0 -271 29l46 215q94 -27 231 -27t228 58t91 161q0 209 -413 209v191q188 5 310 103q67 54 67 118t-48 99q-48 34 -127 34q-162 0 -280 -100l-125 169q164 147 434 148q190 0 309 -83t119 -214t-90 -216t-201 -112v-2q133 -16 235 -104t103 -234
q0 -207 -176 -325t-442 -117z" />
    <glyph glyph-name="four.tosf" 
d="M647 209v444h-2l-321 -444h323zM643 -362v362h-612v172l643 825h239v-788h177v-209h-177v-362h-270z" />
    <glyph glyph-name="five.tosf" 
d="M367 -385q-150 0 -242 25l43 217q80 -25 209 -25t221 67t92 187t-106 180q-106 59 -258 60q-84 0 -154 -13l45 684h735v-211h-489l-19 -249q233 -4 385 -121t152 -326q-1 -209 -167 -342t-447 -133z" />
    <glyph glyph-name="six.tosf" 
d="M586 184q86 0 137 62t51 164t-50 159t-160 57t-199 -73v-25q0 -152 54 -248t167 -96zM578 -25q-364 0 -472 373q-29 104 -28 225q0 365 231 590t627 226l57 -218q-241 -2 -409 -104t-205 -313q109 80 279 80t288 -110q117 -110 117 -306t-137 -320q-137 -123 -348 -123z
" />
    <glyph glyph-name="seven.tosf" 
d="M94 776v223h955v-147l-687 -1264l-225 111l590 1077h-633z" />
    <glyph glyph-name="eight.tosf" 
d="M575 1188q-77 0 -123 -43t-46 -107q0 -107 172 -207q162 104 161 201q0 66 -44 111t-120 45zM568 178q91 0 145 50q53 50 53 124q0 119 -221 238q-180 -113 -180 -240q0 -76 56 -124t147 -48zM1047 352q-1 -174 -133 -276t-352 -101q-220 -1 -346 101t-126 264
q0 215 266 360q-227 131 -227 326q0 160 126 261q127 101 323 101t317 -92q121 -94 121 -261t-248 -308q139 -74 209 -163t70 -212z" />
    <glyph glyph-name="nine.tosf" 
d="M566 375q112 0 196 71v23q0 154 -52 250t-165 96q-84 0 -139 -60t-56 -161q0 -219 216 -219zM467 168q-170 0 -288 111t-118 305q-1 194 141 316t351 122q254 0 375 -171t121 -427q1 -371 -231 -586t-648 -215l-57 215q153 4 281 41t231 131q102 94 125 238
q-113 -80 -283 -80z" />
    <glyph glyph-name="commaaccent" horiz-adv-x="1024" 
d="M375 -194q0 46 37 77t95 31t102 -39t44 -102q0 -131 -118 -238h-136q103 95 17 183q-41 42 -41 88z" />
    <glyph glyph-name="f_b" horiz-adv-x="1808" 
d="M1230 188q102 0 165 83t63 235q0 301 -213 301q-94 0 -166 -76v-520q49 -23 151 -23zM1323 1022q193 0 309 -132t115 -382q0 -250 -150 -392q-151 -142 -393 -141q-242 0 -397 80v1198q-53 23 -166 23q-184 0 -184 -201v-78h209v-202h-209v-795h-273v795h-149v202h149
v103q0 190 122 294t362 105q240 0 411 -61v-518q102 102 244 102z" />
    <glyph glyph-name="f_f_b" horiz-adv-x="2408" 
d="M461 997h325v103q0 66 15 114q-61 47 -160 48q-180 0 -180 -205v-60zM1830 188q102 0 165 83t63 235q0 301 -213 301q-94 0 -166 -76v-520q49 -23 151 -23zM1923 1022q195 0 309 -132t115 -382t-149 -392t-392 -141q-242 0 -399 80v1198q-53 23 -166 23q-184 0 -184 -201
v-78h217v-202h-217v-795h-271v795h-325v-795h-273v795h-153v202h153v95q0 180 111 288t303 107q192 0 318 -82q124 94 356 94t403 -61v-518q102 102 244 102z" />
    <glyph glyph-name="f_f_h" horiz-adv-x="2416" 
d="M461 997h325v103q0 66 15 114q-61 47 -160 48q-180 0 -180 -205v-60zM188 0v795h-153v202h153v95q0 180 111 288t303 107q192 0 318 -82q124 94 356 94t403 -61v-561q129 145 299 145t240 -87q72 -87 72 -237v-698h-273v643q0 78 -30 115q-31 37 -103 37
q-109 0 -205 -125v-670h-272v1253q-53 23 -166 23q-184 0 -184 -201v-78h217v-202h-217v-795h-271v795h-325v-795h-273z" />
    <glyph glyph-name="f_f_j" horiz-adv-x="1800" 
d="M461 997h325v101q0 66 17 114q-70 49 -162 50q-180 0 -180 -205v-60zM1321 -477q-121 0 -180 24l47 211q37 -12 78 -12q72 0 98 47t25 166v836h-332v-795h-271v795h-325v-795h-273v795h-153v202h153v95q0 180 111 288t299 107q188 0 326 -80q118 92 318 92t353 -88
l-96 -201q-111 66 -237 66q-205 0 -205 -201v-78h606v-1067q0 -407 -342 -407z" />
    <glyph glyph-name="f_f_k" horiz-adv-x="2336" 
d="M461 997h325v103q0 66 15 114q-61 47 -160 48q-180 0 -180 -205v-60zM1679 0h-272v1253q-53 23 -166 23q-184 0 -184 -201v-78h217v-202h-217v-795h-271v795h-325v-795h-273v795h-153v202h153v95q0 180 111 288t303 107q192 0 318 -82q124 94 356 94t403 -61v-842
l328 401h299l-371 -444l379 -553h-315l-320 483v-483z" />
    <glyph glyph-name="f_h" horiz-adv-x="1816" 
d="M184 0v795h-149v202h149v103q0 190 122 294t362 105q240 0 411 -61v-561q129 145 299 145t240 -87q72 -87 72 -237v-698h-273v643q0 78 -31 115t-102 37q-109 0 -205 -125v-670h-272v1253q-53 23 -166 23q-184 0 -184 -201v-78h209v-202h-209v-795h-273z" />
    <glyph glyph-name="f_j" horiz-adv-x="1204" 
d="M723 -477q-125 0 -178 24l45 211q38 -12 94 -12t82 48t27 165v836h-336v-795h-273v795h-149v202h149v101q0 184 119 293t329 109t363 -89l-96 -201q-111 66 -237 66q-205 0 -205 -201v-78h610v-1067q0 -407 -344 -407z" />
    <glyph glyph-name="f_k" horiz-adv-x="1736" 
d="M1079 0h-272v1253q-53 23 -166 23q-184 0 -184 -201v-78h209v-202h-209v-795h-273v795h-149v202h149v103q0 190 122 294t362 105q240 0 411 -61v-842l328 401h299l-371 -444l379 -553h-315l-320 483v-483z" />
    </font>
</defs>
</svg>
