<?xml version="1.0" standalone="no"?>
<!DOCTYPE svg PUBLIC "-//W3C//DTD SVG 1.1//EN" "http://www.w3.org/Graphics/SVG/1.1/DTD/svg11.dtd" >
<svg xmlns="http://www.w3.org/2000/svg" xmlns:xlink="http://www.w3.org/1999/xlink" version="1.1">
<metadata>
Created by FontForge 20170731 at Fri Oct  9 16:04:36 2015
 By Aleksey,,,
2005 Mike Abbink published by FSI Fonts und Software GmbH. Cyrillic letters PDF-RiP (c) 2007 by AcnApyX.
</metadata>
<defs>
<font id="KievitOT-ExtraBold" horiz-adv-x="1159" >
  <font-face 
    font-family="KievitOT-ExtraBold"
    font-weight="800"
    font-stretch="normal"
    units-per-em="2048"
    panose-1="2 0 5 3 4 0 0 2 0 4"
    ascent="1556"
    descent="-492"
    x-height="1004"
    cap-height="1364"
    bbox="-389 -512 2617 1896"
    underline-thickness="40"
    underline-position="-311"
    unicode-range="U+0020-FB04"
  />
<missing-glyph 
d="M358 238h443v888h-443v-888zM121 0v1364h917v-1364h-917z" />
    <glyph glyph-name="uniFB00" unicode="ff" horiz-adv-x="1394" 
d="M492 1004h303v88q0 41 10 98q-51 43 -148 43q-166 0 -165 -178v-51zM180 0v774h-147v230h147v81q0 186 114 294t311 108t323 -74q100 86 275 86t261 -53l-71 -229q-57 29 -137 29t-116 -44q-34 -43 -34 -135v-63h237v-230h-237v-774h-311v774h-303v-774h-312z" />
    <glyph glyph-name="uniFB03" unicode="ffi" horiz-adv-x="1849" 
d="M492 1004h303v86q0 53 12 98q-53 45 -150 45q-166 0 -165 -178v-51zM180 0v774h-147v230h147v81q0 186 114 294t314 108t334 -80q124 92 332 92t366 -86l-104 -227q-104 59 -236 59q-195 0 -194 -180v-61h620v-1004h-311v774h-309v-774h-311v774h-303v-774h-312z" />
    <glyph glyph-name="uniFB04" unicode="ffl" horiz-adv-x="1878" 
d="M492 1004h303v88q0 51 12 98q-51 43 -150 43q-166 0 -165 -178v-51zM180 0v774h-147v230h147v81q0 186 114 294t312 108t332 -82q128 94 378 94t425 -63v-1436h-311v1227q-55 18 -152 18q-172 0 -172 -180v-61h205v-230h-205v-774h-311v774h-303v-774h-312z" />
    <glyph glyph-name="fi" unicode="fi" horiz-adv-x="1374" 
d="M920 0v1004h315v-1004h-315zM1077 1114q-80 0 -132 52t-52 126t52 126t132 52t132 -52q53 -52 53 -126t-52 -126t-133 -52zM178 0v774h-145v230h145v88q0 184 106 296t292 112t272 -54l-70 -229q-63 29 -141 28q-147 0 -148 -178v-63h234v-230h-234v-774h-311z" />
    <glyph glyph-name="fl" unicode="fl" horiz-adv-x="1366" 
d="M918 0v1475h311v-1475h-311zM178 0v774h-145v230h145v88q0 184 106 296t292 112t272 -54l-70 -229q-63 29 -141 28q-147 0 -148 -178v-63h234v-230h-234v-774h-311z" />
    <glyph glyph-name=".notdef" 
d="M358 238h443v888h-443v-888zM121 0v1364h917v-1364h-917z" />
    <glyph glyph-name="uni0000" horiz-adv-x="0" 
 />
    <glyph glyph-name="uni000D" horiz-adv-x="376" 
 />
    <glyph glyph-name="space" unicode=" " horiz-adv-x="376" 
 />
    <glyph glyph-name="exclam" unicode="!" horiz-adv-x="641" 
d="M195 479l-56 885h363l-58 -885h-249zM319 346q85 0 139 -53t54 -130t-54 -130t-138 -53q-83 0 -137 53t-54 130t53 130t137 53z" />
    <glyph glyph-name="quotedbl" unicode="&#x22;" horiz-adv-x="827" 
d="M494 848l-33 516h297l-60 -516h-204zM129 848l-59 516h297l-33 -516h-205z" />
    <glyph glyph-name="numbersign" unicode="#" horiz-adv-x="1099" 
d="M463 625h164l24 168h-164zM188 168l39 244h-178l37 221h174l23 153h-174l34 222h172l39 241h209l-37 -241h150l37 241h211l-39 -241h162l-37 -222h-158l-23 -153h160l-37 -221h-155l-35 -244h-211l37 244h-152l-37 -244h-211z" />
    <glyph glyph-name="dollar" unicode="$" horiz-adv-x="880" 
d="M315 -252v234q-166 18 -272 90l100 215q129 -84 274 -84t144 73q0 32 -37 52q-38 20 -116 45t-156 63q-186 92 -186 275q0 115 66 193t183 106v219h256v-207q152 -18 234 -72l-103 -211q-94 61 -227 61t-133 -73q0 -34 49 -56q49 -21 100 -38q183 -58 278 -147
q71 -67 71 -181q0 -254 -269 -315v-242h-256z" />
    <glyph glyph-name="percent" unicode="%" horiz-adv-x="1861" 
d="M502 0l602 1004h258l-602 -1004h-258zM1452 164q100 0 100 142t-102 143q-104 0 -104 -138q0 -63 26 -105t80 -42zM1447 -25q-175 1 -270 93t-95 233t98 239t272 97q174 0 270 -92q96 -93 96 -233t-98 -238t-273 -99zM310 698q0 -142 103 -143q103 0 103 142t-104 143
q-102 0 -102 -142zM780 705q0 -141 -98 -239t-271 -99q-173 0 -271 93q-97 93 -97 233q0 139 98 237q97 98 273 98t271 -91t95 -232z" />
    <glyph glyph-name="ampersand" unicode="&#x26;" horiz-adv-x="1388" 
d="M383 381q1 -78 53 -123t149 -45t179 57l-268 301q-113 -84 -113 -190zM743 1063q0 49 -29 80q-30 31 -83 31t-86 -32t-33 -83q0 -81 94 -185q137 90 137 189zM533 -25q-217 -1 -345 105t-127 276q0 134 68 226t213 170q-133 158 -133 306t117 240q117 90 302 90
q186 0 292 -86q106 -87 106 -223q0 -106 -70 -190t-213 -168l213 -242q57 111 78 226l262 -46q-37 -217 -166 -383l242 -276h-375l-77 88q-170 -113 -387 -113z" />
    <glyph glyph-name="quotesingle" unicode="'" horiz-adv-x="448" 
d="M121 848l-49 516h305l-49 -516h-207z" />
    <glyph glyph-name="parenleft" unicode="(" horiz-adv-x="735" 
d="M735 -338h-295q-365 389 -364 918q0 295 109 522q110 227 255 373h295q-127 -143 -225 -367t-98 -520q-1 -537 323 -926z" />
    <glyph glyph-name="parenright" unicode=")" horiz-adv-x="737" 
d="M328 569q0 293 -98 523t-230 383h299q145 -145 255 -373t110 -540q0 -311 -132 -562q-99 -193 -233 -338h-299q328 389 328 907z" />
    <glyph glyph-name="asterisk" unicode="*" horiz-adv-x="1036" 
d="M373 557l-205 143l180 203l-262 72l82 221l238 -96l-15 264h254l-14 -264l237 96l82 -221l-262 -72l180 -203l-206 -143l-144 229z" />
    <glyph glyph-name="plus" unicode="+" horiz-adv-x="1138" 
d="M438 55v365h-354v235h354v355h264v-355h353v-235h-353v-365h-264z" />
    <glyph glyph-name="comma" unicode="," horiz-adv-x="622" 
d="M244 -82q0 51 -33 89t-66 80t-33 111q0 68 53 116q52 48 136 48t146 -66t63 -179q0 -211 -154 -420h-196q84 131 84 221z" />
    <glyph glyph-name="hyphen" unicode="-" horiz-adv-x="688" 
d="M102 449v249h486v-249h-486z" />
    <glyph glyph-name="period" unicode="." horiz-adv-x="622" 
d="M311 -20q-84 0 -141 55t-57 136t57 136t141 55q83 0 141 -55t58 -136t-58 -136t-141 -55z" />
    <glyph glyph-name="slash" unicode="/" horiz-adv-x="952" 
d="M31 -244l610 1690h301l-610 -1690h-301z" />
    <glyph glyph-name="zero" unicode="0" horiz-adv-x="1208" 
d="M610 221q209 0 209 277q0 137 -54 211t-159 73q-213 0 -213 -274q1 -139 57 -213t160 -74zM1153 508q-1 -300 -237 -451q-128 -82 -288 -82q-303 0 -436 161t-133 368q1 208 143 366t408 158q137 0 245 -44t171 -119q127 -151 127 -357z" />
    <glyph glyph-name="one" unicode="1" horiz-adv-x="784" 
d="M336 0v735l-240 -69l-63 243l375 95h237v-1004h-309z" />
    <glyph glyph-name="two" unicode="2" horiz-adv-x="1060" 
d="M39 0v143q396 262 501 400q52 70 52 123q0 119 -152 118q-115 0 -235 -102l-148 195q172 154 435 153q206 0 320 -75t114 -225t-121 -267t-285 -225q74 8 137 8h349v-246h-967z" />
    <glyph glyph-name="three" unicode="3" horiz-adv-x="956" 
d="M291 -385q-158 0 -228 16l48 248q57 -20 180 -20t204 51t80 151q0 178 -331 179v223q115 4 206 59t91 142q0 117 -154 116q-117 0 -209 -84l-143 197q170 135 424 135q193 0 298 -85t105 -217t-82 -215t-188 -112v-4q127 -14 222 -101t95 -233q-1 -205 -169 -325
t-449 -121z" />
    <glyph glyph-name="four" unicode="4" horiz-adv-x="1263" 
d="M678 236v378h-4l-299 -378h303zM678 -362v362h-635v195l668 809h278v-768h209v-236h-209v-362h-311z" />
    <glyph glyph-name="five" unicode="5" horiz-adv-x="954" 
d="M270 -385q-125 0 -217 25l58 243q82 -23 159 -22q127 0 208 58t81 169q0 219 -295 219q-104 0 -153 -14l45 711h706v-238h-426l-14 -219q219 -8 345 -125t126 -331t-167 -345t-456 -131z" />
    <glyph glyph-name="six" unicode="6" horiz-adv-x="1140" 
d="M389 528q-1 -137 49 -228t139 -91t133 54t44 143q0 203 -174 202q-113 0 -191 -63v-17zM598 -25q-198 0 -318 86q-120 87 -168 219t-49 302q0 360 239 583t640 224l66 -248q-127 0 -250 -32q-296 -77 -350 -339q98 72 266 72t290 -110q120 -110 120 -310t-144 -324
q-144 -123 -342 -123z" />
    <glyph glyph-name="seven" unicode="7" horiz-adv-x="1003" 
d="M43 752v252h879v-160l-590 -1258l-260 127l485 1039h-514z" />
    <glyph glyph-name="eight" unicode="8" horiz-adv-x="1114" 
d="M702 1026q0 61 -35 99q-36 38 -104 38q-67 0 -105 -37t-38 -92q0 -100 147 -190q135 90 135 182zM554 203q83 0 128 43t45 105q0 61 -45 111t-150 107q-154 -94 -153 -215q0 -70 46 -110t129 -41zM1049 356q1 -180 -135 -280t-362 -101q-226 1 -357 99t-132 270
q0 215 256 352q-215 119 -215 322q0 164 130 267t333 103t326 -92t123 -265t-234 -304q135 -70 201 -156t66 -215z" />
    <glyph glyph-name="nine" unicode="9" horiz-adv-x="1146" 
d="M389 594q1 -197 193 -197q98 0 174 64v14q4 135 -44 227t-140 92t-137 -52q-46 -52 -46 -148zM469 166q-170 0 -291 108t-121 310q-1 200 147 322t365 122q264 0 388 -171t124 -435q-1 -371 -235 -585t-664 -214l-67 246q125 0 258 34q317 81 370 337q-104 -74 -274 -74z
" />
    <glyph glyph-name="colon" unicode=":" horiz-adv-x="626" 
d="M313 1016q83 0 141 -55t58 -137t-58 -138q-58 -55 -142 -55q-85 0 -142 55t-57 137q0 81 58 137t142 56zM313 -20q-84 0 -142 55t-58 137t58 136t142 54q83 0 141 -54t58 -136t-58 -137t-141 -55z" />
    <glyph glyph-name="semicolon" unicode=";" horiz-adv-x="626" 
d="M313 1016q83 0 141 -55t58 -137t-58 -138q-58 -55 -142 -55q-85 0 -142 55t-57 137q0 81 58 137t142 56zM250 -82q0 51 -33 89t-65 80q-33 42 -33 111q0 68 52 116t136 48t147 -66q62 -67 62 -179q0 -211 -154 -420h-196q84 131 84 221z" />
    <glyph glyph-name="less" unicode="&#x3c;" horiz-adv-x="821" 
d="M586 37l-533 471l529 483l163 -168l-337 -307l344 -301z" />
    <glyph glyph-name="equal" unicode="=" horiz-adv-x="991" 
d="M82 621v233h827v-233h-827zM82 223v234h827v-234h-827z" />
    <glyph glyph-name="greater" unicode="&#x3e;" horiz-adv-x="821" 
d="M240 37l-164 168l338 307l-344 303l166 176l532 -471z" />
    <glyph glyph-name="question" unicode="?" horiz-adv-x="849" 
d="M332 -20q-84 0 -137 53t-54 131t53 130t138 52t137 -52t53 -130t-53 -131t-137 -53zM197 475v105q0 90 33 143q34 53 103 99t97 85t29 99q0 129 -158 129q-86 0 -180 -50l-107 228q139 76 350 76q211 -1 322 -99t111 -256q0 -184 -172 -305q-15 -12 -59 -42t-58 -43
q-45 -42 -45 -97v-72h-266z" />
    <glyph glyph-name="at" unicode="@" horiz-adv-x="1693" 
d="M797 371q131 0 196 334l15 61q-43 14 -93 14q-84 0 -133 -94t-49 -225q1 -90 64 -90zM834 -207q-336 0 -536 195t-200 506q0 203 99 387q98 184 283 303t409 119q352 -1 546 -185t193 -465q0 -223 -120 -357t-316 -134t-221 160h-6q-94 -154 -267 -154q-98 0 -156 70
t-59 176q0 233 121 390t320 157q164 0 323 -58l-61 -362q-14 -86 -15 -113q0 -74 64 -74q80 0 135 76t55 209q0 233 -140 355q-141 122 -385 122t-410 -175t-164 -433q0 -258 132 -391t398 -133q168 0 295 59l72 -180q-162 -70 -389 -70z" />
    <glyph glyph-name="A" unicode="A" horiz-adv-x="1427" 
d="M27 0l520 1364h317l537 -1364h-361l-79 229h-521l-80 -229h-333zM528 492h340l-100 280q-12 35 -68 238h-4q-18 -73 -69 -238z" />
    <glyph glyph-name="B" unicode="B" horiz-adv-x="1251" 
d="M485 811h117q104 0 153 38q48 38 48 118q0 147 -193 147h-125v-303zM485 250h140q223 0 223 162q0 168 -211 168h-152v-330zM160 0v1364h487q202 0 333 -72q146 -78 146 -268q0 -252 -241 -315v-4q129 -23 213 -105t84 -223q0 -377 -541 -377h-481z" />
    <glyph glyph-name="C" unicode="C" horiz-adv-x="1267" 
d="M793 -25q-340 0 -526 206q-185 206 -185 498t179 495q87 98 226 156t312 59q250 0 418 -111l-146 -240q-121 78 -285 78t-258 -119q-96 -119 -96 -309t95 -314t263 -124t308 102l135 -231q-67 -55 -185 -101t-255 -45z" />
    <glyph glyph-name="D" unicode="D" horiz-adv-x="1464" 
d="M492 262h126q418 0 418 430q0 214 -103 312t-325 98h-116v-840zM160 0v1364h444q387 0 584 -178q196 -178 196 -488t-202 -504t-590 -194h-432z" />
    <glyph glyph-name="E" unicode="E" horiz-adv-x="1103" 
d="M160 0v1364h815v-270h-488v-265h431v-254h-431v-305h502v-270h-829z" />
    <glyph glyph-name="F" unicode="F" horiz-adv-x="1056" 
d="M160 0v1364h807v-270h-475v-301h419v-252h-419v-541h-332z" />
    <glyph glyph-name="G" unicode="G" horiz-adv-x="1456" 
d="M798 -25q-328 0 -522 207t-194 500t207 500t555 207q285 0 454 -121l-143 -246q-135 94 -325 94t-293 -115q-105 -115 -105 -313t95 -322t286 -124q135 0 209 43v235h-238v254h553v-672q-211 -127 -539 -127z" />
    <glyph glyph-name="H" unicode="H" horiz-adv-x="1540" 
d="M160 0v1364h332v-522h559v522h327v-1364h-327v571h-559v-571h-332z" />
    <glyph glyph-name="I" unicode="I" horiz-adv-x="692" 
d="M172 0v1364h334v-1364h-334z" />
    <glyph glyph-name="J" unicode="J" horiz-adv-x="708" 
d="M131 -428q-143 0 -227 39l51 266q47 -20 117 -20t107 43q36 43 36 147v1317h334v-1360q-1 -208 -111 -320t-307 -112z" />
    <glyph glyph-name="K" unicode="K" horiz-adv-x="1331" 
d="M160 0v1364h332v-571l434 571h362l-487 -629l506 -735h-387l-428 627v-627h-332z" />
    <glyph glyph-name="L" unicode="L" horiz-adv-x="1081" 
d="M166 0v1364h334v-1100h497v-264h-831z" />
    <glyph glyph-name="M" unicode="M" horiz-adv-x="1824" 
d="M469 844q0 -59 -16 -203l-80 -641h-297l188 1364h322l256 -813q10 -37 31 -119t32 -110h4l66 229l266 813h322l186 -1364h-338l-76 643q-23 158 -22 201h-4q-45 -170 -56 -197l-200 -647h-326l-201 647q-10 37 -22 80t-21 78q-8 35 -10 39h-4z" />
    <glyph glyph-name="N" unicode="N" horiz-adv-x="1540" 
d="M1081 1364h299v-1364h-301l-485 688q-33 45 -139 213h-4q8 -57 8 -190v-711h-299v1364h334l442 -635q64 -92 105 -165t44 -75h5l-9 224v651z" />
    <glyph glyph-name="O" unicode="O" horiz-adv-x="1593" 
d="M1161 682q0 194 -88 318t-270 124q-183 0 -277 -122t-94 -314t92 -320t275 -128q182 0 272 124t90 318zM805 -25q-336 0 -530 207t-193 498q0 188 79 346t245 260t391 103q336 0 524 -204t188 -494t-175 -496q-85 -100 -222 -160t-307 -60z" />
    <glyph glyph-name="P" unicode="P" horiz-adv-x="1241" 
d="M487 711h119q123 0 180 50t58 157q0 199 -230 198h-127v-405zM158 0v1364h481q240 0 387 -112q148 -112 148 -332t-153 -339q-153 -118 -417 -118h-117v-463h-329z" />
    <glyph glyph-name="Q" unicode="Q" horiz-adv-x="1593" 
d="M1161 682q0 194 -88 318t-270 124q-183 0 -277 -122t-94 -314t92 -320t275 -128q182 0 272 124t90 318zM1235 -369q-174 0 -315 79t-295 288q-255 50 -399 242t-144 440q0 188 79 346t245 260t391 103q336 0 524 -204t188 -495q0 -246 -129 -438t-370 -252
q49 -70 103 -98t139 -27q85 0 161 55l105 -213q-109 -86 -283 -86z" />
    <glyph glyph-name="R" unicode="R" horiz-adv-x="1304" 
d="M492 768h143q203 0 203 174t-215 174h-131v-348zM160 0v1364h483q252 0 386 -102t134 -299q0 -158 -84 -249t-213 -122v-4q76 -57 166 -203l244 -385h-361l-241 389q-63 98 -93 124t-73 26h-16v-539h-332z" />
    <glyph glyph-name="S" unicode="S" horiz-adv-x="1069" 
d="M473 -25q-252 0 -418 134l135 229q147 -98 287 -98q96 0 147 36q50 36 50 86q0 80 -88 125q-33 17 -103 47t-110 52q-139 68 -212 162t-73 260t129 273q129 108 326 108q250 0 411 -117l-129 -230q-152 82 -260 82q-164 0 -164 -123q0 -72 93 -117q59 -28 98 -44t123 -55
t181 -127t96 -275t-134 -297t-385 -111z" />
    <glyph glyph-name="T" unicode="T" horiz-adv-x="1126" 
d="M397 0v1094h-370v270h1075v-270h-373v-1094h-332z" />
    <glyph glyph-name="U" unicode="U" horiz-adv-x="1480" 
d="M754 -25q-600 0 -600 560v829h331v-805q1 -164 63 -240t212 -75q262 0 262 301v819h303v-797q0 -291 -144 -441t-427 -151z" />
    <glyph glyph-name="V" unicode="V" horiz-adv-x="1392" 
d="M549 0l-526 1364h358l264 -776q14 -45 39 -132t29 -94h4q2 6 13 48t52 178l256 776h332l-508 -1364h-313z" />
    <glyph glyph-name="W" unicode="W" horiz-adv-x="1896" 
d="M1341 461h7q0 53 49 258l157 645h314l-371 -1364h-305l-176 702l-53 252h-5q-29 -139 -59 -252l-197 -702h-305l-366 1364h352l154 -649q17 -67 43 -215l6 -39h4l8 43q30 153 47 223l162 637h323l158 -635q53 -233 53 -268z" />
    <glyph glyph-name="X" unicode="X" horiz-adv-x="1294" 
d="M37 0l430 698l-414 666h377l234 -393l219 393h331l-391 -659l437 -705h-373l-262 438l-256 -438h-332z" />
    <glyph glyph-name="Y" unicode="Y" horiz-adv-x="1253" 
d="M469 0v514l-451 850h367l264 -543h2l262 543h322l-434 -850v-514h-332z" />
    <glyph glyph-name="Z" unicode="Z" horiz-adv-x="1175" 
d="M94 0v213l586 883h-563v268h964v-209l-589 -887h606v-268h-1004z" />
    <glyph glyph-name="bracketleft" unicode="[" horiz-adv-x="722" 
d="M125 -330v1805h543v-230h-246v-1345h246v-230h-543z" />
    <glyph glyph-name="backslash" unicode="\" horiz-adv-x="952" 
d="M651 -330l-651 1805h301l651 -1805h-301z" />
    <glyph glyph-name="bracketright" unicode="]" horiz-adv-x="722" 
d="M53 -330v230h248v1345h-248v230h545v-1805h-545z" />
    <glyph glyph-name="asciicircum" unicode="^" horiz-adv-x="1196" 
d="M80 590l409 774h216l409 -774h-287l-229 452l-229 -452h-289z" />
    <glyph glyph-name="underscore" unicode="_" horiz-adv-x="911" 
d="M-2 -393v237h915v-237h-915z" />
    <glyph glyph-name="grave" unicode="`" horiz-adv-x="1024" 
d="M535 1108l-291 283h393l164 -283h-266z" />
    <glyph glyph-name="a" unicode="a" horiz-adv-x="1048" 
d="M469 195q94 0 158 71v168h-33q-238 0 -238 -145q0 -45 32 -69t81 -25zM369 -25q-135 0 -222 76q-86 76 -86 211q0 180 154 269t379 90h33v47q0 61 -33 89t-119 27q-137 0 -252 -90l-131 187q170 147 408 147t338 -89t100 -294v-328q0 -182 29 -317h-305q-14 43 -19 104
q-100 -129 -274 -129z" />
    <glyph glyph-name="b" unicode="b" horiz-adv-x="1153" 
d="M555 217q213 -1 213 283t-186 284q-92 0 -152 -69v-479q45 -19 125 -19zM1098 510q0 -256 -152 -396t-401 -139q-250 0 -426 80v1420h311v-551q104 104 244 104q192 0 308 -131t116 -387z" />
    <glyph glyph-name="c" unicode="c" horiz-adv-x="950" 
d="M594 -25q-248 -1 -393 141t-145 386t151 385q152 141 395 141q190 0 307 -76l-94 -211q-86 53 -198 53t-172 -75q-60 -76 -60 -212t60 -215t171 -79t211 53l91 -205q-2 0 -16 -9t-28 -14q-12 -5 -40 -20t-52 -19q-24 -5 -46 -10q-62 -14 -142 -14z" />
    <glyph glyph-name="d" unicode="d" horiz-adv-x="1161" 
d="M567 219q96 0 166 88v420q-65 59 -155 59t-141 -74q-50 -75 -50 -216q0 -277 180 -277zM454 -27q-180 1 -288 137t-109 381q0 245 127 391t324 146q137 0 225 -67v514h311v-1164q0 -176 31 -311h-305q-18 45 -22 106q-114 -133 -294 -133z" />
    <glyph glyph-name="e" unicode="e" horiz-adv-x="1081" 
d="M560 809q-150 0 -177 -186h330q-3 186 -153 186zM596 -25q-254 1 -397 143t-143 384t144 384q146 142 378 142t345 -158q114 -158 87 -452h-619q23 -215 236 -215q63 0 121 13q58 12 72 20q15 8 63 30l96 -194q-55 -31 -86 -45t-115 -33t-182 -19z" />
    <glyph glyph-name="f" unicode="f" horiz-adv-x="780" 
d="M178 0v774h-145v230h145v88q0 184 106 296t292 112t272 -54l-70 -229q-63 29 -141 28q-147 0 -148 -178v-63h234v-230h-234v-774h-311z" />
    <glyph glyph-name="g" unicode="g" horiz-adv-x="1120" 
d="M524 498q76 0 119 43t43 123t-43 124t-119 43q-76 0 -118 -44q-42 -43 -41 -123q-1 -80 41 -123t118 -43zM344 -164q0 -125 176 -125q113 0 176 38q64 38 64 94q0 55 -42 71q-61 23 -167 23l-27 2q-63 4 -121 12q-59 -47 -59 -115zM500 -489q-453 0 -453 262
q0 147 168 241q-88 55 -88 154q0 129 115 199q-176 98 -176 297q0 166 121 265q122 99 335 99q104 0 189 -24h374v-199h-133q33 -68 33 -141q0 -166 -115 -264t-329 -99q-55 0 -121 10q-29 -25 -29 -57t44 -45q45 -11 147 -17q274 -15 338 -52q104 -57 132 -137
q17 -52 17 -122q-1 -164 -155 -267t-414 -103z" />
    <glyph glyph-name="h" unicode="h" horiz-adv-x="1157" 
d="M119 0v1475h311v-586q139 139 303 139t237 -90t72 -240v-698h-311v635q0 71 -28 103t-93 32q-88 0 -180 -108v-662h-311z" />
    <glyph glyph-name="i" unicode="i" horiz-adv-x="593" 
d="M139 0v1004h316v-1004h-316zM297 1114q-80 0 -132 52t-52 126t52 126t132 52t132 -52t52 -126t-52 -126t-132 -52z" />
    <glyph glyph-name="j" unicode="j" horiz-adv-x="587" 
d="M293 1114q-80 0 -132 52t-52 126t52 126t132 52t133 -52t53 -126t-53 -126t-133 -52zM88 -479q-123 0 -203 26l54 240q33 -14 91 -14t83 45t24 162v1024h316v-1055q0 -428 -365 -428z" />
    <glyph glyph-name="k" unicode="k" horiz-adv-x="1091" 
d="M119 0v1475h311v-859l301 388h338l-358 -451l362 -553h-358l-285 457v-457h-311z" />
    <glyph glyph-name="l" unicode="l" horiz-adv-x="585" 
d="M137 0v1475h312v-1475h-312z" />
    <glyph glyph-name="m" unicode="m" horiz-adv-x="1703" 
d="M121 0v1004h305v-121q39 41 69 67t93 52t137 26q193 0 256 -156q71 78 145 117t177 39q287 0 286 -330v-698h-311v635q0 71 -24 103t-80 32q-82 0 -164 -100v-670h-312v635q0 135 -102 135q-30 0 -60 -14t-44 -28t-37 -38l-23 -24v-666h-311z" />
    <glyph glyph-name="n" unicode="n" 
d="M121 0v1004h305v-123q125 147 315 147q158 0 231 -90t72 -240v-698h-311v635q1 71 -27 103t-88 32t-108 -34q-49 -34 -78 -74v-662h-311z" />
    <glyph glyph-name="o" unicode="o" horiz-adv-x="1142" 
d="M575 207q100 0 141 74q40 74 40 217q0 303 -191 303q-98 0 -139 -75t-41 -218q0 -301 190 -301zM569 -25q-248 0 -381 154t-133 369q0 302 226 450q121 80 288 80q250 0 383 -152t133 -368q0 -215 -134 -374t-382 -159z" />
    <glyph glyph-name="p" unicode="p" horiz-adv-x="1165" 
d="M587 213q91 0 141 75t50 216q0 279 -178 278q-92 0 -168 -90v-420q64 -59 155 -59zM121 -449v1453h305v-105q109 129 289 129t286 -136q107 -136 107 -381t-126 -390t-325 -146q-129 0 -225 66v-490h-311z" />
    <glyph glyph-name="q" unicode="q" horiz-adv-x="1155" 
d="M578 215q94 0 151 70v483q-55 18 -121 18q-216 0 -216 -286t186 -285zM729 -446v526q-100 -104 -244 -105q-193 0 -309 131q-116 132 -115 388q0 256 152 395q151 139 399 139t428 -74v-1400h-311z" />
    <glyph glyph-name="r" unicode="r" horiz-adv-x="829" 
d="M121 0v1004h311v-132q96 156 250 156q92 0 145 -31l-73 -266q-45 25 -115 25t-124 -43t-83 -92v-621h-311z" />
    <glyph glyph-name="s" unicode="s" horiz-adv-x="868" 
d="M398 -25q-209 0 -355 95l100 215q111 -82 255 -82t145 73q0 28 -32 46t-107 46t-125 52q-106 51 -157 118q-50 67 -50 173q0 145 107 231q108 86 291 86t323 -76l-103 -211q-110 59 -226 59t-116 -73q0 -35 41 -54t94 -35q187 -60 274 -149q65 -66 64 -184
q0 -330 -423 -330z" />
    <glyph glyph-name="t" unicode="t" horiz-adv-x="817" 
d="M517 -25q-326 0 -324 328v471h-156v230h156v288h311v-288h229v-230h-229v-405q0 -76 20 -108t76 -32t129 33l68 -229q-111 -58 -280 -58z" />
    <glyph glyph-name="u" unicode="u" 
d="M418 -25q-158 0 -231 88t-72 240v701h311v-635q0 -70 28 -103t93 -33q92 0 180 107v664h311v-691q0 -182 29 -313h-307q-16 53 -21 131q-120 -156 -321 -156z" />
    <glyph glyph-name="v" unicode="v" horiz-adv-x="1069" 
d="M387 0l-369 1004h334l187 -621h4l190 621h318l-373 -1004h-291z" />
    <glyph glyph-name="w" unicode="w" horiz-adv-x="1550" 
d="M299 0l-281 1004h334l133 -603h4l152 603h285l151 -607h4l140 607h309l-281 -1004h-280l-195 637h-4l-190 -637h-281z" />
    <glyph glyph-name="x" unicode="x" horiz-adv-x="1079" 
d="M29 0l342 516l-332 488h350q49 -78 80 -121l82 -127l141 248h318l-310 -474l353 -530h-353l-182 291l-168 -291h-321z" />
    <glyph glyph-name="y" unicode="y" horiz-adv-x="1089" 
d="M174 -481q-98 0 -174 20l45 246q29 -12 115 -12t134 39t75 118l34 97l-374 977h329l207 -619h6l183 619h317l-409 -1102q-74 -203 -180 -293t-308 -90z" />
    <glyph glyph-name="z" unicode="z" horiz-adv-x="960" 
d="M78 0v166l414 604h-396v234h774v-177l-409 -594h411v-233h-794z" />
    <glyph glyph-name="braceleft" unicode="{" horiz-adv-x="862" 
d="M807 -330h-268q-100 0 -177 70q-76 70 -75 194v332q0 197 -236 199v237q123 2 179 52t57 149v309q0 129 74 196q75 67 182 67h264v-230h-123q-57 0 -79 -33t-21 -100v-278q0 -190 -181 -244v-4q180 -59 181 -258v-297q0 -76 18 -104t80 -27h125v-230z" />
    <glyph glyph-name="bar" unicode="|" horiz-adv-x="587" 
d="M156 -512v2048h276v-2048h-276z" />
    <glyph glyph-name="braceright" unicode="}" horiz-adv-x="862" 
d="M53 -330v230h125q57 0 79 32t22 101v301q0 190 180 244v4q-180 59 -180 258v274q-1 76 -19 104t-80 27h-127v230h271q100 0 176 -70t75 -195v-307q-1 -100 55 -149t181 -52v-237q-123 -2 -179 -50t-57 -149v-334q-1 -130 -75 -196t-181 -66h-266z" />
    <glyph glyph-name="asciitilde" unicode="~" horiz-adv-x="1196" 
d="M793 328q-102 0 -214 56t-200 56t-172 -84l-141 183q156 156 335 155q94 0 206 -56t205 -56t177 84l141 -183q-155 -155 -337 -155z" />
    <glyph glyph-name="uni00A0" unicode="&#xa0;" horiz-adv-x="376" 
 />
    <glyph glyph-name="exclamdown" unicode="&#xa1;" horiz-adv-x="624" 
d="M139 -358l58 886h247l58 -886h-363zM512 843q0 -77 -54 -131t-137 -53q-83 -1 -137 53t-55 131q0 77 54 131q53 54 137 54t138 -54t54 -131z" />
    <glyph glyph-name="cent" unicode="&#xa2;" horiz-adv-x="950" 
d="M414 -252v250q-170 45 -264 177t-94 327q0 194 96 324t262 175v228h254v-203q147 -12 241 -74l-94 -211q-86 53 -198 53t-172 -75q-60 -76 -60 -212t60 -215t171 -79t211 53l91 -205q-113 -68 -250 -81v-232h-254z" />
    <glyph glyph-name="sterling" unicode="&#xa3;" horiz-adv-x="1079" 
d="M127 532v224h170q-25 117 -25 225q0 186 124 297t328 111t325 -78l-121 -215q-78 45 -170 45q-160 0 -160 -187q0 -98 23 -198h294v-224h-264v-6q0 -92 -36 -166t-85 -114h461v-246h-854v197q96 47 145 133q48 86 48 188v14h-203z" />
    <glyph glyph-name="currency" unicode="&#xa4;" horiz-adv-x="1325" 
d="M674 446q72 0 112 46t39 120q0 72 -40 117q-41 45 -111 45t-112 -46t-42 -118t41 -118t113 -46zM229 608q0 139 76 248l-164 207l228 174l159 -217q129 44 275 6l158 213l229 -176l-156 -195q84 -104 84 -254t-78 -258l146 -186l-228 -174l-145 199q-61 -21 -142 -21
t-155 27l-154 -207l-227 174l162 205q-68 96 -68 235z" />
    <glyph glyph-name="yen" unicode="&#xa5;" horiz-adv-x="1234" 
d="M461 0v168h-334v211h334v110h-334v211h235l-352 664h367l264 -549h2l262 549h322l-340 -664h239v-211h-335v-110h335v-211h-335v-168h-330z" />
    <glyph glyph-name="brokenbar" unicode="&#xa6;" horiz-adv-x="534" 
d="M125 782v754h278v-754h-278zM125 -512v774h278v-774h-278z" />
    <glyph glyph-name="section" unicode="&#xa7;" horiz-adv-x="950" 
d="M354 697q0 -50 36 -101t70 -84t95 -86q37 37 37 81q0 43 -20 71t-38 49q-17 21 -79 79t-74 68q-27 -27 -27 -77zM384 -311q-183 0 -290 69l88 224q70 -52 151 -52q159 -1 159 121q0 43 -44 91t-108 98q-63 50 -127 106q-63 57 -108 139q-44 82 -44 174q0 178 162 281
q-72 109 -71 213q0 156 111 251q112 95 287 95t292 -80l-111 -198q-72 47 -138 47q-126 0 -126 -105q0 -77 148 -201q63 -52 125 -112t106 -145q44 -84 43 -177q0 -160 -156 -276q74 -98 74 -201q0 -178 -120 -270t-303 -92z" />
    <glyph glyph-name="dieresis" unicode="&#xa8;" horiz-adv-x="1024" 
d="M735 1112q-72 0 -119 46t-47 112t47 112q47 48 119 48t118 -48t46 -112q0 -66 -46 -112t-118 -46zM289 1112q-72 0 -118 46t-46 112t46 112q46 48 118 48t119 -48t47 -112q0 -66 -47 -112t-119 -46z" />
    <glyph glyph-name="copyright" unicode="&#xa9;" horiz-adv-x="1693" 
d="M846 145q254 0 416 162t162 427t-162 428t-416 163t-416 -163t-162 -428t162 -427t416 -162zM847 -29q-315 1 -539 225t-224 539t224 539t538 225q314 0 539 -224q225 -223 225 -539t-224 -540t-539 -225zM856 283q-192 0 -318 128q-126 127 -126 323t130 325t318 129
t311 -113l-120 -172q-83 68 -177 68t-152 -65q-58 -66 -58 -172t60 -174t156 -68t193 90l115 -160q-140 -139 -332 -139z" />
    <glyph glyph-name="ordfeminine" unicode="&#xaa;" horiz-adv-x="782" 
d="M342 803q55 0 104 43v112q-120 0 -150 -30t-30 -62q0 -63 76 -63zM272 637q-102 0 -167 53t-65 164q0 112 101 178q100 66 305 66v28q0 41 -21 61q-23 19 -95 19t-168 -65l-101 143q121 104 299 104t252 -62q74 -64 74 -212v-231q0 -131 29 -228h-240q-10 25 -14 68
q-87 -86 -189 -86z" />
    <glyph glyph-name="guillemotleft" unicode="&#xab;" horiz-adv-x="1144" 
d="M778 106l-237 396l237 397h318l-236 -397l236 -396h-318zM295 106l-238 396l238 397h317l-235 -397l235 -396h-317z" />
    <glyph glyph-name="logicalnot" unicode="&#xac;" horiz-adv-x="1300" 
d="M963 59v365h-881v238h1126v-603h-245z" />
    <glyph glyph-name="uni00AD" unicode="&#xad;" horiz-adv-x="688" 
d="M102 449v249h486v-249h-486z" />
    <glyph glyph-name="registered" unicode="&#xae;" horiz-adv-x="1693" 
d="M756 801h73q125 0 125 104t-118 105h-80v-209zM846 145q254 0 416 162t162 427t-162 428t-416 163t-416 -163t-162 -428t162 -427t416 -162zM847 -29q-315 1 -539 225t-224 539t224 539t538 225q314 0 539 -224q225 -223 225 -539t-224 -540t-539 -225zM547 334v829h305
q152 0 232 -63t79 -182q0 -180 -178 -226q43 -31 98 -127l136 -231h-228l-141 252q-29 47 -46 61t-48 15v-328h-209z" />
    <glyph glyph-name="macron" unicode="&#xaf;" horiz-adv-x="1024" 
d="M219 1143v217h584v-217h-584z" />
    <glyph glyph-name="degree" unicode="&#xb0;" horiz-adv-x="708" 
d="M354 969q53 0 85 35t32 90t-32 90t-85 35t-85 -35q-31 -35 -31 -90t32 -90t84 -35zM355 799q-124 0 -213 86t-89 209t89 209t212 86t212 -86t89 -209t-88 -209t-212 -86z" />
    <glyph glyph-name="plusminus" unicode="&#xb1;" horiz-adv-x="1175" 
d="M100 -336v238h940v-238h-940zM440 55v365h-356v235h356v355h262v-355h355v-235h-355v-365h-262z" />
    <glyph glyph-name="uni00B2" unicode="&#xb2;" horiz-adv-x="708" 
d="M45 676v123q14 10 59 45t86 65q40 31 53 44t37 35t33 37q11 15 27 39t16 64q0 68 -76 68t-147 -66l-110 150q113 98 273 98t238 -61t76 -162q0 -57 -38 -117t-78 -95q-40 -36 -113 -91q37 4 102 4h154v-180h-592z" />
    <glyph glyph-name="uni00B3" unicode="&#xb3;" horiz-adv-x="669" 
d="M244 664q-154 0 -205 22l43 174q53 -25 133 -24q123 0 123 53q0 59 -176 63v135q160 10 160 72q0 43 -66 43t-129 -37l-82 148q109 65 247 65t207 -43t69 -113t-46 -110q-45 -39 -104 -53v-2q70 -10 123 -49t53 -117q0 -106 -97 -167q-99 -60 -253 -60z" />
    <glyph glyph-name="acute" unicode="&#xb4;" horiz-adv-x="1024" 
d="M295 1108l164 283h393l-291 -283h-266z" />
    <glyph glyph-name="mu" unicode="&#xb5;" horiz-adv-x="1169" 
d="M117 -430v1434h311v-639q0 -70 25 -101t88 -31q92 0 186 107v664h311v-693q0 -180 29 -311h-305q-18 43 -23 129q-111 -125 -239 -143q-51 -4 -80 4h-8q8 -25 8 -195v-225h-303z" />
    <glyph glyph-name="paragraph" unicode="&#xb6;" horiz-adv-x="1368" 
d="M487 -362v862q-180 0 -304 120t-124 312t123 312t305 120h832v-242h-150v-1484h-270v1484h-141v-1484h-271z" />
    <glyph glyph-name="periodcentered" unicode="&#xb7;" horiz-adv-x="552" 
d="M276 401q-84 -1 -141 55t-57 138t57 137t141 55t142 -55t57 -137q1 -82 -57 -138t-142 -55z" />
    <glyph glyph-name="cedilla" unicode="&#xb8;" horiz-adv-x="1009" 
d="M737 -289q-1 -78 -73 -133t-188 -55t-185 33l39 133q49 -23 104 -23q96 0 96 68q0 86 -145 73l74 201h174l-43 -114q68 -14 108 -60t39 -123z" />
    <glyph glyph-name="uni00B9" unicode="&#xb9;" horiz-adv-x="604" 
d="M219 676v487l-149 -35l-50 183l261 53h176v-688h-238z" />
    <glyph glyph-name="ordmasculine" unicode="&#xba;" horiz-adv-x="851" 
d="M428 813q68 0 94 48t25 149q0 207 -127 207q-66 -1 -92 -51t-25 -148q0 -205 125 -205zM426 637q-180 0 -280 108q-99 109 -99 266t98 267q99 110 279 111q180 0 280 -108q100 -109 101 -265t-99 -268t-280 -111z" />
    <glyph glyph-name="guillemotright" unicode="&#xbb;" horiz-adv-x="1144" 
d="M532 106l236 398l-236 395h318l237 -395l-237 -398h-318zM49 106l236 398l-236 395h316l237 -395l-237 -398h-316z" />
    <glyph glyph-name="onequarter" unicode="&#xbc;" horiz-adv-x="1591" 
d="M1161 291h49v160h-2l-135 -164q37 4 88 4zM1202 0v121h-344v141l356 428h226v-399h106v-170h-106v-121h-238zM215 0l832 1364h245l-831 -1364h-246zM219 676v487l-149 -35l-50 183l261 53h176v-688h-238z" />
    <glyph glyph-name="onehalf" unicode="&#xbd;" horiz-adv-x="1617" 
d="M954 0v123q196 149 254 211t58 121q0 65 -73 65t-151 -63l-110 147q118 98 276 98t235 -60t77 -152t-60 -162q-60 -68 -170 -152q37 4 105 4h151v-180h-592zM215 0l832 1364h245l-831 -1364h-246zM219 676v487l-149 -35l-50 183l261 53h176v-688h-238z" />
    <glyph glyph-name="threequarters" unicode="&#xbe;" horiz-adv-x="1656" 
d="M1227 291h51v160h-2l-135 -164q37 4 86 4zM1270 0v121h-346v141l358 428h223v-399h107v-170h-107v-121h-235zM281 0l831 1364h248l-832 -1364h-247zM244 664q-154 0 -205 22l43 174q53 -25 133 -24q123 0 123 53q0 59 -176 63v135q160 10 160 72q0 43 -66 43t-129 -37
l-82 148q109 65 247 65t207 -43t69 -113t-46 -110q-45 -39 -104 -53v-2q70 -10 123 -49t53 -117q0 -106 -97 -167q-99 -60 -253 -60z" />
    <glyph glyph-name="questiondown" unicode="&#xbf;" horiz-adv-x="847" 
d="M519 659q-83 -1 -137 53t-54 131t54 131t137 54t137 -54t54 -131t-54 -131t-137 -53zM484 -383q-210 0 -320 99t-111 265q0 166 172 298q101 67 116 80q46 39 46 100v71h266v-102q-1 -92 -33 -145t-102 -99t-98 -86q-28 -39 -29 -98q0 -129 160 -129q74 0 178 49
l107 -225q-142 -78 -352 -78z" />
    <glyph glyph-name="Agrave" unicode="&#xc0;" horiz-adv-x="1427" 
d="M588 1464l-291 283h393l164 -283h-266zM27 0l520 1364h317l537 -1364h-361l-79 229h-521l-80 -229h-333zM528 492h340l-100 280q-12 35 -68 238h-4q-18 -73 -69 -238z" />
    <glyph glyph-name="Aacute" unicode="&#xc1;" horiz-adv-x="1427" 
d="M541 1464l164 283h393l-291 -283h-266zM27 0l520 1364h317l537 -1364h-361l-79 229h-521l-80 -229h-333zM528 492h340l-100 280q-12 35 -68 238h-4q-18 -73 -69 -238z" />
    <glyph glyph-name="Acircumflex" unicode="&#xc2;" horiz-adv-x="1427" 
d="M315 1466l265 332h237l260 -332h-260l-121 123l-121 -123h-260zM27 0l520 1364h317l537 -1364h-361l-79 229h-521l-80 -229h-333zM528 492h340l-100 280q-12 35 -68 238h-4q-18 -73 -69 -238z" />
    <glyph glyph-name="Atilde" unicode="&#xc3;" horiz-adv-x="1427" 
d="M823 1477q-73 1 -143 35t-114 34t-105 -61l-139 119q36 66 100 116t140 49t146 -35q72 -34 116 -34t108 63l139 -121q-105 -165 -248 -165zM27 0l520 1364h317l537 -1364h-361l-79 229h-521l-80 -229h-333zM528 492h340l-100 280q-12 35 -68 238h-4q-18 -73 -69 -238z
" />
    <glyph glyph-name="Adieresis" unicode="&#xc4;" horiz-adv-x="1427" 
d="M920 1468q-72 0 -119 46t-47 112t47 112q47 48 119 48t118 -47t45 -113q1 -66 -45 -112t-118 -46zM473 1468q-72 0 -118 46t-46 112t46 112q46 48 118 48t119 -47t47 -113t-47 -112t-119 -46zM27 0l520 1364h317l537 -1364h-361l-79 229h-521l-80 -229h-333zM528 492h340
l-100 280q-12 35 -68 238h-4q-18 -73 -69 -238z" />
    <glyph glyph-name="Aring" unicode="&#xc5;" horiz-adv-x="1427" 
d="M696 1571q41 0 67 30q25 29 25 71t-25 71q-26 29 -67 29q-40 0 -66 -29t-26 -71t26 -72t66 -29zM696 1448q-94 0 -164 63t-70 159t70 162q70 64 164 64t164 -64t70 -161q0 -95 -70 -159t-164 -64zM27 0l520 1364h317l537 -1364h-361l-79 229h-521l-80 -229h-333zM528 492
h340l-100 280q-12 35 -68 238h-4q-18 -73 -69 -238z" />
    <glyph glyph-name="AE" unicode="&#xc6;" horiz-adv-x="1787" 
d="M844 516v496l-266 -496h266zM1659 1364v-270h-490v-265h433v-254h-433v-305h504v-270h-829v260h-402l-139 -260h-356l772 1364h940z" />
    <glyph glyph-name="Ccedilla" unicode="&#xc7;" horiz-adv-x="1267" 
d="M911 -289q-1 -78 -73 -133t-188 -55t-185 33l39 133q49 -23 104 -23q96 0 97 68q0 86 -146 73l68 185q-264 47 -405 240q-140 194 -140 466t179 476q87 98 226 156t312 59q250 0 418 -111l-146 -240q-121 78 -285 78t-258 -119q-96 -119 -96 -309t95 -314t263 -124
t308 102l135 -231q-67 -55 -185 -101t-253 -45l-31 -81q68 -14 108 -60t39 -123z" />
    <glyph glyph-name="Egrave" unicode="&#xc8;" horiz-adv-x="1103" 
d="M457 1464l-291 283h393l164 -283h-266zM160 0v1364h815v-270h-488v-265h431v-254h-431v-305h502v-270h-829z" />
    <glyph glyph-name="Eacute" unicode="&#xc9;" horiz-adv-x="1103" 
d="M160 0v1364h815v-270h-488v-265h431v-254h-431v-305h502v-270h-829zM408 1464l163 283h394l-291 -283h-266z" />
    <glyph glyph-name="Ecircumflex" unicode="&#xca;" horiz-adv-x="1103" 
d="M160 0v1364h815v-270h-488v-265h431v-254h-431v-305h502v-270h-829zM182 1466l264 332h238l260 -332h-260l-121 123l-121 -123h-260z" />
    <glyph glyph-name="Edieresis" unicode="&#xcb;" horiz-adv-x="1103" 
d="M160 0v1364h815v-270h-488v-265h431v-254h-431v-305h502v-270h-829zM786 1468q-72 0 -118 46t-47 112q0 66 47 112q48 48 118 48t117 -47t47 -113t-46 -112t-118 -46zM340 1468q-72 0 -118 46t-46 112t47 112q47 48 118 48t118 -47t47 -113t-47 -112t-119 -46z" />
    <glyph glyph-name="Igrave" unicode="&#xcc;" horiz-adv-x="692" 
d="M231 1464l-290 283h393l164 -283h-267zM172 0v1364h334v-1364h-334z" />
    <glyph glyph-name="Iacute" unicode="&#xcd;" horiz-adv-x="692" 
d="M184 1464l164 283h393l-290 -283h-267zM172 0v1364h334v-1364h-334z" />
    <glyph glyph-name="Icircumflex" unicode="&#xce;" horiz-adv-x="692" 
d="M-41 1466l264 332h238l260 -332h-260l-121 123l-121 -123h-260zM172 0v1364h334v-1364h-334z" />
    <glyph glyph-name="Idieresis" unicode="&#xcf;" horiz-adv-x="692" 
d="M563 1468q-72 0 -119 46t-47 112t47 112q47 48 119 48t118 -47t46 -113t-46 -112t-118 -46zM117 1468q-72 0 -118 46t-46 112t46 112q46 48 118 48t119 -47t47 -113t-47 -112t-119 -46zM172 0v1364h334v-1364h-334z" />
    <glyph glyph-name="Eth" unicode="&#xd0;" horiz-adv-x="1464" 
d="M492 262h126q418 0 418 430q0 214 -103 312t-325 98h-116v-297h210v-230h-210v-313zM160 0v575h-127v230h127v559h444q387 0 584 -178q196 -178 196 -488t-202 -504t-590 -194h-432z" />
    <glyph glyph-name="Ntilde" unicode="&#xd1;" horiz-adv-x="1540" 
d="M895 1477q-73 1 -143 35t-114 34t-106 -61l-139 119q35 66 100 116t141 49t146 -35t115 -34t109 63l139 -121q-105 -165 -248 -165zM1081 1364h299v-1364h-301l-485 688q-33 45 -139 213h-4q8 -57 8 -190v-711h-299v1364h334l442 -635q64 -92 105 -165t44 -75h5l-9 224
v651z" />
    <glyph glyph-name="Ograve" unicode="&#xd2;" horiz-adv-x="1593" 
d="M688 1464l-291 283h394l163 -283h-266zM1161 682q0 194 -88 318t-270 124q-183 0 -277 -122t-94 -314t92 -320t275 -128q182 0 272 124t90 318zM805 -25q-336 0 -530 207t-193 498q0 188 79 346t245 260t391 103q336 0 524 -204t188 -494t-175 -496q-85 -100 -222 -160
t-307 -60z" />
    <glyph glyph-name="Oacute" unicode="&#xd3;" horiz-adv-x="1593" 
d="M1161 682q0 194 -88 318t-270 124q-183 0 -277 -122t-94 -314t92 -320t275 -128q182 0 272 124t90 318zM805 -25q-336 0 -530 207t-193 498q0 188 79 346t245 260t391 103q336 0 524 -204t188 -494t-175 -496q-85 -100 -222 -160t-307 -60zM639 1464l164 283h393
l-291 -283h-266z" />
    <glyph glyph-name="Ocircumflex" unicode="&#xd4;" horiz-adv-x="1593" 
d="M1161 682q0 194 -88 318t-270 124q-183 0 -277 -122t-94 -314t92 -320t275 -128q182 0 272 124t90 318zM805 -25q-336 0 -530 207t-193 498q0 188 79 346t245 260t391 103q336 0 524 -204t188 -494t-175 -496q-85 -100 -222 -160t-307 -60zM414 1466l264 332h237
l261 -332h-261l-120 123l-121 -123h-260z" />
    <glyph glyph-name="Otilde" unicode="&#xd5;" horiz-adv-x="1593" 
d="M922 1477q-72 1 -143 35t-115 34t-105 -61l-139 119q36 66 100 116t140 49t146 -35t116 -34q44 0 108 63l139 -121q-104 -165 -247 -165zM1161 682q0 194 -88 318t-270 124q-183 0 -277 -122t-94 -314t92 -320t275 -128q182 0 272 124t90 318zM805 -25q-336 0 -530 207
t-193 498q0 188 79 346t245 260t391 103q336 0 524 -204t188 -494t-175 -496q-85 -100 -222 -160t-307 -60z" />
    <glyph glyph-name="Odieresis" unicode="&#xd6;" horiz-adv-x="1593" 
d="M1161 682q0 194 -88 318t-270 124q-183 0 -277 -122t-94 -314t92 -320t275 -128q182 0 272 124t90 318zM805 -25q-336 0 -530 207t-193 498q0 188 79 346t245 260t391 103q336 0 524 -204t188 -494t-175 -496q-85 -100 -222 -160t-307 -60zM1018 1468q-72 0 -119 46
t-47 112t47 112q47 48 119 48t118 -47t46 -113t-46 -112t-118 -46zM571 1468q-71 0 -117 46t-46 112t46 112q46 48 118 48t118 -47q47 -47 47 -113t-47 -112t-119 -46z" />
    <glyph glyph-name="multiply" unicode="&#xd7;" horiz-adv-x="1046" 
d="M772 117l-248 248l-239 -240l-179 178l240 240l-242 241l179 181l243 -242l238 238l178 -179l-237 -237l247 -248z" />
    <glyph glyph-name="Oslash" unicode="&#xd8;" horiz-adv-x="1593" 
d="M797 240q184 0 274 124t90 292t-49 274l-473 -658q64 -32 158 -32zM432 706q0 -174 53 -274l473 660q-68 33 -153 32q-185 0 -279 -122t-94 -296zM82 680q0 188 79 346t245 260t370 102t340 -63l133 184l197 -141l-129 -178q193 -195 193 -492t-176 -503
q-85 -99 -222 -159t-310 -60t-319 61l-141 -195l-199 140l140 192q-201 201 -201 506z" />
    <glyph glyph-name="Ugrave" unicode="&#xd9;" horiz-adv-x="1480" 
d="M631 1464l-291 283h393l164 -283h-266zM754 -25q-600 0 -600 560v829h331v-805q1 -164 63 -240t212 -75q262 0 262 301v819h303v-797q0 -291 -144 -441t-427 -151z" />
    <glyph glyph-name="Uacute" unicode="&#xda;" horiz-adv-x="1480" 
d="M754 -25q-600 0 -600 560v829h331v-805q1 -164 63 -240t212 -75q262 0 262 301v819h303v-797q0 -291 -144 -441t-427 -151zM584 1464l164 283h393l-291 -283h-266z" />
    <glyph glyph-name="Ucircumflex" unicode="&#xdb;" horiz-adv-x="1480" 
d="M754 -25q-600 0 -600 560v829h331v-805q1 -164 63 -240t212 -75q262 0 262 301v819h303v-797q0 -291 -144 -441t-427 -151zM358 1466l265 332h237l260 -332h-260l-121 123l-121 -123h-260z" />
    <glyph glyph-name="Udieresis" unicode="&#xdc;" horiz-adv-x="1480" 
d="M754 -25q-600 0 -600 560v829h331v-805q1 -164 63 -240t212 -75q262 0 262 301v819h303v-797q0 -291 -144 -441t-427 -151zM963 1468q-72 0 -119 46t-47 112t47 112q47 48 118 48q72 0 118 -47t46 -113t-46 -112t-117 -46zM516 1468q-72 0 -118 46t-46 112t47 112
q47 48 118 48t118 -47t47 -113t-47 -112t-119 -46z" />
    <glyph glyph-name="Yacute" unicode="&#xdd;" horiz-adv-x="1253" 
d="M479 1464l164 283h393l-291 -283h-266zM469 0v514l-451 850h367l264 -543h2l262 543h322l-434 -850v-514h-332z" />
    <glyph glyph-name="Thorn" unicode="&#xde;" horiz-adv-x="1269" 
d="M487 494h119q123 0 180 50t58 156q0 197 -230 197h-127v-403zM158 0v1364h329v-217h152q240 0 387 -113q148 -112 148 -332t-153 -338t-417 -118h-117v-246h-329z" />
    <glyph glyph-name="germandbls" unicode="&#xdf;" horiz-adv-x="1208" 
d="M1167 287q0 -143 -97 -227t-274 -85q-177 0 -292 64l80 219q78 -55 172 -55q123 0 123 86q0 37 -30 61q-77 62 -151 101q-154 113 -153 245q0 80 28 127t103 121q74 74 74 162q0 156 -146 156q-170 0 -170 -248v-1014h-311v1018q0 244 137 362t350 119t331 -109t118 -272
q0 -125 -101 -221q-18 -18 -58 -52q-71 -61 -73 -114q1 -27 13 -41t19 -22t25 -20t26 -17q9 -7 34 -21q177 -103 209 -212q14 -48 14 -111z" />
    <glyph glyph-name="agrave" unicode="&#xe0;" horiz-adv-x="1048" 
d="M414 1108l-291 283h393l164 -283h-266zM469 195q94 0 158 71v168h-33q-238 0 -238 -145q0 -45 32 -69t81 -25zM369 -25q-135 0 -222 76q-86 76 -86 211q0 180 154 269t379 90h33v47q0 61 -33 89t-119 27q-137 0 -252 -90l-131 187q170 147 408 147t338 -89t100 -294v-328
q0 -182 29 -317h-305q-14 43 -19 104q-100 -129 -274 -129z" />
    <glyph glyph-name="aacute" unicode="&#xe1;" horiz-adv-x="1048" 
d="M365 1108l163 283h394l-291 -283h-266zM469 195q94 0 158 71v168h-33q-238 0 -238 -145q0 -45 32 -69t81 -25zM369 -25q-135 0 -222 76q-86 76 -86 211q0 180 154 269t379 90h33v47q0 61 -33 89t-119 27q-137 0 -252 -90l-131 187q170 147 408 147t338 -89t100 -294v-328
q0 -182 29 -317h-305q-14 43 -19 104q-100 -129 -274 -129z" />
    <glyph glyph-name="acircumflex" unicode="&#xe2;" horiz-adv-x="1048" 
d="M139 1110l264 332h238l260 -332h-260l-121 123l-121 -123h-260zM469 195q94 0 158 71v168h-33q-238 0 -238 -145q0 -45 32 -69t81 -25zM369 -25q-135 0 -222 76q-86 76 -86 211q0 180 154 269t379 90h33v47q0 61 -33 89t-119 27q-137 0 -252 -90l-131 187
q170 147 408 147t338 -89t100 -294v-328q0 -182 29 -317h-305q-14 43 -19 104q-100 -129 -274 -129z" />
    <glyph glyph-name="atilde" unicode="&#xe3;" horiz-adv-x="1048" 
d="M647 1120q-73 0 -143 35t-114 35t-105 -62l-140 119q35 66 100 116t141 50t146 -35t115 -35t109 64l139 -121q-105 -166 -248 -166zM469 195q94 0 158 71v168h-33q-238 0 -238 -145q0 -45 32 -69t81 -25zM369 -25q-135 0 -222 76q-86 76 -86 211q0 180 154 269t379 90h33
v47q0 61 -33 89t-119 27q-137 0 -252 -90l-131 187q170 147 408 147t338 -89t100 -294v-328q0 -182 29 -317h-305q-14 43 -19 104q-100 -129 -274 -129z" />
    <glyph glyph-name="adieresis" unicode="&#xe4;" horiz-adv-x="1048" 
d="M743 1112q-73 0 -119 46t-46 112t47 112q47 48 119 48t117 -48q46 -48 46 -112q0 -66 -46 -112t-118 -46zM297 1112q-72 0 -118 46t-46 112t46 112q46 48 118 48t119 -48t47 -112q0 -66 -47 -112t-119 -46zM469 195q94 0 158 71v168h-33q-238 0 -238 -145q0 -45 32 -69
t81 -25zM369 -25q-135 0 -222 76q-86 76 -86 211q0 180 154 269t379 90h33v47q0 61 -33 89t-119 27q-137 0 -252 -90l-131 187q170 147 408 147t338 -89t100 -294v-328q0 -182 29 -317h-305q-14 43 -19 104q-100 -129 -274 -129z" />
    <glyph glyph-name="aring" unicode="&#xe5;" horiz-adv-x="1048" 
d="M520 1225q41 -1 67 29q25 30 25 72t-25 71q-26 29 -67 29q-40 0 -66 -30q-26 -28 -26 -70t26 -72t66 -29zM520 1102q-94 0 -164 63t-70 159t70 162q70 64 164 64t164 -64t70 -161q0 -95 -70 -159t-164 -64zM469 195q94 0 158 71v168h-33q-238 0 -238 -145q0 -45 32 -69
t81 -25zM369 -25q-135 0 -222 76q-86 76 -86 211q0 180 154 269t379 90h33v47q0 61 -33 89t-119 27q-137 0 -252 -90l-131 187q170 147 408 147t338 -89t100 -294v-328q0 -182 29 -317h-305q-14 43 -19 104q-100 -129 -274 -129z" />
    <glyph glyph-name="ae" unicode="&#xe6;" horiz-adv-x="1644" 
d="M1122 809q-148 0 -180 -186h332q-4 186 -152 186zM469 195q113 0 186 100q-25 66 -30 139h-31q-238 0 -238 -145q0 -45 32 -69t81 -25zM369 -25q-135 0 -222 76q-86 76 -86 211q0 180 154 269t379 90h39v47q0 59 -35 88t-123 28q-121 0 -252 -90l-131 187
q180 147 410 147t323 -104q133 104 301 104q221 0 335 -130t114 -376q0 -78 -4 -104h-621q31 -215 238 -215q62 0 120 13q58 12 73 20t63 30l96 -194q-55 -31 -86 -45q-31 -15 -114 -33t-181 -19q-266 0 -414 168q-155 -168 -376 -168z" />
    <glyph glyph-name="ccedilla" unicode="&#xe7;" horiz-adv-x="950" 
d="M445 -477q-116 0 -185 33l39 133q49 -23 104 -23q96 0 97 68q0 86 -146 73l70 189q-174 43 -271 175t-98 329q0 246 152 387t395 141q190 0 307 -76l-94 -211q-86 53 -198 53t-172 -75q-60 -76 -60 -212t60 -215t171 -79t211 53l91 -205q-2 0 -16 -9t-28 -14
q-12 -5 -40 -20t-52 -19q-24 -5 -46 -10q-62 -14 -142 -14h-4l-31 -81q68 -14 108 -60t40 -123q0 -78 -73 -133t-189 -55z" />
    <glyph glyph-name="egrave" unicode="&#xe8;" horiz-adv-x="1081" 
d="M459 1108l-291 283h393l164 -283h-266zM560 809q-150 0 -177 -186h330q-3 186 -153 186zM596 -25q-254 1 -397 143t-143 384t144 384q146 142 378 142t345 -158q114 -158 87 -452h-619q23 -215 236 -215q63 0 121 13q58 12 72 20q15 8 63 30l96 -194q-55 -31 -86 -45
t-115 -33t-182 -19z" />
    <glyph glyph-name="eacute" unicode="&#xe9;" horiz-adv-x="1081" 
d="M560 809q-150 0 -177 -186h330q-3 186 -153 186zM596 -25q-254 1 -397 143t-143 384t144 384q146 142 378 142t345 -158q114 -158 87 -452h-619q23 -215 236 -215q63 0 121 13q58 12 72 20q15 8 63 30l96 -194q-55 -31 -86 -45t-115 -33t-182 -19zM410 1108l163 283h394
l-291 -283h-266z" />
    <glyph glyph-name="ecircumflex" unicode="&#xea;" horiz-adv-x="1081" 
d="M560 809q-150 0 -177 -186h330q-3 186 -153 186zM596 -25q-254 1 -397 143t-143 384t144 384q146 142 378 142t345 -158q114 -158 87 -452h-619q23 -215 236 -215q63 0 121 13q58 12 72 20q15 8 63 30l96 -194q-55 -31 -86 -45t-115 -33t-182 -19zM184 1110l265 332h237
l260 -332h-260l-121 123l-121 -123h-260z" />
    <glyph glyph-name="edieresis" unicode="&#xeb;" horiz-adv-x="1081" 
d="M560 809q-150 0 -177 -186h330q-3 186 -153 186zM596 -25q-254 1 -397 143t-143 384t144 384q146 142 378 142t345 -158q114 -158 87 -452h-619q23 -215 236 -215q63 0 121 13q58 12 72 20q15 8 63 30l96 -194q-55 -31 -86 -45t-115 -33t-182 -19zM788 1112
q-72 0 -118 46t-47 112q0 66 47 112q46 48 118 48t118 -48t46 -112q0 -66 -46 -112t-118 -46zM342 1112q-72 0 -118 46t-46 112t46 112q46 48 118 48t119 -48t47 -112q0 -66 -47 -112t-119 -46z" />
    <glyph glyph-name="igrave" unicode="&#xec;" horiz-adv-x="593" 
d="M190 1108l-290 283h393l164 -283h-267zM139 0v1004h316v-1004h-316z" />
    <glyph glyph-name="iacute" unicode="&#xed;" horiz-adv-x="593" 
d="M139 0v1004h316v-1004h-316zM141 1108l164 283h393l-290 -283h-267z" />
    <glyph glyph-name="icircumflex" unicode="&#xee;" horiz-adv-x="593" 
d="M139 0v1004h316v-1004h-316zM-84 1110l264 332h238l260 -332h-260l-121 123l-121 -123h-260z" />
    <glyph glyph-name="idieresis" unicode="&#xef;" horiz-adv-x="593" 
d="M139 0v1004h316v-1004h-316zM520 1112q-72 0 -119 46t-47 112t47 112q47 48 118 48t118 -48t47 -112q0 -66 -46 -112t-118 -46zM74 1112q-72 0 -118 46t-46 112t47 112q47 48 118 48t118 -48t47 -112q0 -66 -47 -112t-119 -46z" />
    <glyph glyph-name="eth" unicode="&#xf0;" 
d="M578 207q95 0 143 93q47 93 47 306q0 57 -2 80q-66 86 -195 86q-184 0 -184 -278q0 -133 48 -210t143 -77zM1096 614q0 -293 -134 -466t-374 -173q-240 1 -385 137t-145 374t133 377q134 138 329 138q119 0 191 -55q-49 141 -158 215l-127 -117l-119 119l78 70
q-115 29 -238 29l64 237q219 0 391 -63l139 127l117 -119l-96 -88q334 -223 334 -742z" />
    <glyph glyph-name="ntilde" unicode="&#xf1;" 
d="M702 1120q-72 0 -142 35t-114 35t-106 -62l-139 119q35 66 99 116t140 50t147 -35t115 -35t109 64l139 -121q-105 -166 -248 -166zM121 0v1004h305v-123q125 147 315 147q158 0 231 -90t72 -240v-698h-311v635q1 71 -27 103t-88 32t-108 -34q-49 -34 -78 -74v-662h-311z
" />
    <glyph glyph-name="ograve" unicode="&#xf2;" horiz-adv-x="1142" 
d="M465 1108l-291 283h393l164 -283h-266zM575 207q100 0 141 74q40 74 40 217q0 303 -191 303q-98 0 -139 -75t-41 -218q0 -301 190 -301zM569 -25q-248 0 -381 154t-133 369q0 302 226 450q121 80 288 80q250 0 383 -152t133 -368q0 -215 -134 -374t-382 -159z" />
    <glyph glyph-name="oacute" unicode="&#xf3;" horiz-adv-x="1142" 
d="M575 207q100 0 141 74q40 74 40 217q0 303 -191 303q-98 0 -139 -75t-41 -218q0 -301 190 -301zM569 -25q-248 0 -381 154t-133 369q0 302 226 450q121 80 288 80q250 0 383 -152t133 -368q0 -215 -134 -374t-382 -159zM414 1108l164 283h393l-291 -283h-266z" />
    <glyph glyph-name="ocircumflex" unicode="&#xf4;" horiz-adv-x="1142" 
d="M575 207q100 0 141 74q40 74 40 217q0 303 -191 303q-98 0 -139 -75t-41 -218q0 -301 190 -301zM569 -25q-248 0 -381 154t-133 369q0 302 226 450q121 80 288 80q250 0 383 -152t133 -368q0 -215 -134 -374t-382 -159zM188 1110l265 332h237l260 -332h-260l-121 123
l-120 -123h-261z" />
    <glyph glyph-name="otilde" unicode="&#xf5;" horiz-adv-x="1142" 
d="M696 1120q-72 0 -142 35t-115 35q-44 0 -105 -62l-139 119q35 66 99 116t140 50t147 -35t115 -35t109 64l139 -121q-105 -166 -248 -166zM575 207q100 0 141 74q40 74 40 217q0 303 -191 303q-98 0 -139 -75t-41 -218q0 -301 190 -301zM569 -25q-248 0 -381 154t-133 369
q0 302 226 450q121 80 288 80q250 0 383 -152t133 -368q0 -215 -134 -374t-382 -159z" />
    <glyph glyph-name="odieresis" unicode="&#xf6;" horiz-adv-x="1142" 
d="M575 207q100 0 141 74q40 74 40 217q0 303 -191 303q-98 0 -139 -75t-41 -218q0 -301 190 -301zM569 -25q-248 0 -381 154t-133 369q0 302 226 450q121 80 288 80q250 0 383 -152t133 -368q0 -215 -134 -374t-382 -159zM793 1112q-72 0 -119 46t-47 112t47 112
q47 48 119 48q71 0 117 -48t46 -112q0 -66 -46 -112t-117 -46zM346 1112q-72 0 -118 46t-46 112t46 112q46 48 118 48t119 -48t47 -112q0 -66 -47 -112t-119 -46z" />
    <glyph glyph-name="divide" unicode="&#xf7;" horiz-adv-x="1171" 
d="M84 387v229h999v-229h-999zM739 862q1 -66 -45 -113t-113 -47t-115 48t-48 112q0 66 48 113t115 47t113 -47t45 -113zM739 139q1 -67 -45 -113t-113 -46t-115 47t-48 113t48 112q48 47 115 47t113 -47t45 -113z" />
    <glyph glyph-name="oslash" unicode="&#xf8;" horiz-adv-x="1142" 
d="M375 508q0 -66 8 -109l262 389q-39 16 -80 17q-190 0 -190 -297zM575 201q190 0 191 297q0 80 -14 131l-275 -402q39 -26 98 -26zM55 498q0 302 226 450q121 80 288 80q111 0 203 -33l119 176l174 -114l-119 -176q139 -141 139 -365t-134 -382q-134 -159 -382 -159
q-127 0 -219 39l-112 -159l-172 112l114 168q-125 145 -125 363z" />
    <glyph glyph-name="ugrave" unicode="&#xf9;" 
d="M473 1108l-291 283h393l164 -283h-266zM418 -25q-158 0 -231 88t-72 240v701h311v-635q0 -70 28 -103t93 -33q92 0 180 107v664h311v-691q0 -182 29 -313h-307q-16 53 -21 131q-120 -156 -321 -156z" />
    <glyph glyph-name="uacute" unicode="&#xfa;" 
d="M418 -25q-158 0 -231 88t-72 240v701h311v-635q0 -70 28 -103t93 -33q92 0 180 107v664h311v-691q0 -182 29 -313h-307q-16 53 -21 131q-120 -156 -321 -156zM422 1108l164 283h393l-291 -283h-266z" />
    <glyph glyph-name="ucircumflex" unicode="&#xfb;" 
d="M418 -25q-158 0 -231 88t-72 240v701h311v-635q0 -70 28 -103t93 -33q92 0 180 107v664h311v-691q0 -182 29 -313h-307q-16 53 -21 131q-120 -156 -321 -156zM197 1110l264 332h237l260 -332h-260l-120 123l-121 -123h-260z" />
    <glyph glyph-name="udieresis" unicode="&#xfc;" 
d="M418 -25q-158 0 -231 88t-72 240v701h311v-635q0 -70 28 -103t93 -33q92 0 180 107v664h311v-691q0 -182 29 -313h-307q-16 53 -21 131q-120 -156 -321 -156zM801 1112q-72 0 -119 46t-47 112t47 112q47 48 119 48t118 -48t46 -112q0 -66 -46 -112t-118 -46zM354 1112
q-72 0 -118 46t-46 112t46 112q46 48 118 48t119 -48t47 -112q0 -66 -47 -112t-119 -46z" />
    <glyph glyph-name="yacute" unicode="&#xfd;" horiz-adv-x="1089" 
d="M401 1108l164 283h393l-290 -283h-267zM174 -481q-98 0 -174 20l45 246q29 -12 115 -12t134 39t75 118l34 97l-374 977h329l207 -619h6l183 619h317l-409 -1102q-74 -203 -180 -293t-308 -90z" />
    <glyph glyph-name="thorn" unicode="&#xfe;" horiz-adv-x="1191" 
d="M593 213q85 0 135 75t50 216q0 279 -178 278q-96 0 -168 -90v-420q76 -59 161 -59zM121 -449v1922h311v-566q109 121 268 121q195 0 301 -136q107 -136 107 -381t-126 -390t-325 -146q-143 0 -225 66v-490h-311z" />
    <glyph glyph-name="ydieresis" unicode="&#xff;" horiz-adv-x="1089" 
d="M780 1112q-72 0 -118 46t-48 112q0 66 48 112q48 48 118 48q72 0 118 -48t46 -112q0 -66 -46 -112t-118 -46zM334 1112q-72 0 -118 46t-46 112t46 112q46 48 118 48t119 -48t47 -112q0 -66 -47 -112t-119 -46zM174 -481q-98 0 -174 20l45 246q29 -12 115 -12t134 39
t75 118l34 97l-374 977h329l207 -619h6l183 619h317l-409 -1102q-74 -203 -180 -293t-308 -90z" />
    <glyph glyph-name="dotlessi" unicode="&#x131;" horiz-adv-x="593" 
d="M139 0v1004h316v-1004h-316z" />
    <glyph glyph-name="Lslash" unicode="&#x141;" horiz-adv-x="1118" 
d="M188 0v449l-104 -76l-117 166l221 157v668h334v-436l191 137l118 -166l-309 -219v-416h498v-264h-832z" />
    <glyph glyph-name="lslash" unicode="&#x142;" horiz-adv-x="739" 
d="M188 0v485l-133 -88v232l133 86v760h314v-568l164 107v-232l-164 -106v-676h-314z" />
    <glyph glyph-name="OE" unicode="&#x152;" horiz-adv-x="1908" 
d="M778 240q113 0 193 36v809q-68 39 -185 39q-184 0 -278 -123t-94 -315t92 -318q92 -128 272 -128zM786 -25q-334 0 -528 207t-192 498q0 188 78 346q79 158 244 260t390 103q100 0 209 -25h795v-270h-490v-265h430v-254h-430v-305h504v-270h-790q-109 -25 -220 -25z" />
    <glyph glyph-name="oe" unicode="&#x153;" horiz-adv-x="1781" 
d="M1253 809q-151 0 -178 -186h330q-10 186 -152 186zM575 207q100 0 141 74q40 74 40 217q0 303 -191 303q-98 0 -139 -75t-41 -218q0 -301 190 -301zM569 -25q-248 0 -381 154t-133 369q0 302 226 450q121 80 288 80q215 0 349 -137q137 137 339 137q244 0 358 -158
t87 -452h-621q27 -215 238 -215q63 0 121 13q58 12 72 20q15 8 63 30l96 -194q-59 -31 -89 -45q-30 -15 -113 -33t-181 -19q-233 0 -373 140q-135 -140 -346 -140z" />
    <glyph glyph-name="Scaron" unicode="&#x160;" horiz-adv-x="1069" 
d="M473 -25q-252 0 -418 134l135 229q147 -98 287 -98q96 0 147 36q50 36 50 86q0 80 -88 125q-33 17 -103 47t-110 52q-139 68 -212 162t-73 260t129 273q129 108 326 108q250 0 411 -117l-129 -230q-152 82 -260 82q-164 0 -164 -123q0 -72 93 -117q59 -28 98 -44t123 -55
t181 -127t96 -275t-134 -297t-385 -111zM412 1464l-260 330h260l120 -121l121 121h260l-264 -330h-237z" />
    <glyph glyph-name="scaron" unicode="&#x161;" horiz-adv-x="868" 
d="M398 -25q-209 0 -355 95l100 215q111 -82 255 -82t145 73q0 28 -32 46t-107 46t-125 52q-106 51 -157 118q-50 67 -50 173q0 145 107 231q108 86 291 86t323 -76l-103 -211q-110 59 -226 59t-116 -73q0 -35 41 -54t94 -35q187 -60 274 -149q65 -66 64 -184
q0 -330 -423 -330zM311 1108l-260 330h260l121 -121l121 121h260l-264 -330h-238z" />
    <glyph glyph-name="Ydieresis" unicode="&#x178;" horiz-adv-x="1253" 
d="M858 1468q-72 0 -119 46t-47 112t47 112q47 48 119 48t118 -47t46 -113t-46 -112t-118 -46zM412 1468q-72 0 -118 46t-46 112t46 112q46 48 118 48t118 -47t48 -113q0 -66 -47 -112t-119 -46zM469 0v514l-451 850h367l264 -543h2l262 543h322l-434 -850v-514h-332z" />
    <glyph glyph-name="Zcaron" unicode="&#x17d;" horiz-adv-x="1175" 
d="M94 0v213l586 883h-563v268h964v-209l-589 -887h606v-268h-1004zM479 1464l-260 330h260l121 -121l121 121h260l-264 -330h-238z" />
    <glyph glyph-name="zcaron" unicode="&#x17e;" horiz-adv-x="960" 
d="M78 0v166l414 604h-396v234h774v-177l-409 -594h411v-233h-794zM360 1108l-260 330h260l121 -121l121 121h260l-264 -330h-238z" />
    <glyph glyph-name="florin" unicode="&#x192;" horiz-adv-x="997" 
d="M141 -385q-141 0 -231 43l78 221q46 -27 122 -27t115 43q39 42 49 136l70 633h-213l31 229h209l22 203q47 403 457 403q176 0 278 -67l-98 -203q-80 37 -163 37t-124 -44t-51 -141l-20 -188h241l-39 -229h-227l-72 -639q-41 -410 -434 -410z" />
    <glyph glyph-name="uni0237" unicode="&#x237;" horiz-adv-x="587" 
d="M88 -479q-123 0 -203 26l54 240q33 -14 91 -14t83 45t24 162v1024h316v-1055q0 -428 -365 -428z" />
    <glyph glyph-name="circumflex" unicode="&#x2c6;" horiz-adv-x="1024" 
d="M131 1110l264 332h238l260 -332h-260l-121 123l-121 -123h-260z" />
    <glyph glyph-name="caron" unicode="&#x2c7;" horiz-adv-x="1024" 
d="M391 1108l-260 330h260l121 -121l121 121h260l-264 -330h-238z" />
    <glyph glyph-name="breve" unicode="&#x2d8;" horiz-adv-x="1024" 
d="M512 1081q-141 0 -244 80q-102 80 -118 236h251q9 -121 109 -121t113 121h249q-12 -156 -116 -236t-244 -80z" />
    <glyph glyph-name="dotaccent" unicode="&#x2d9;" horiz-adv-x="1024" 
d="M512 1130q-72 0 -119 46t-47 112q0 68 47 113t119 45t119 -45t47 -113t-47 -113t-119 -45z" />
    <glyph glyph-name="ring" unicode="&#x2da;" horiz-adv-x="1024" 
d="M512 1225q41 -1 67 29q25 30 25 72t-25 71q-26 29 -67 29t-67 -30q-25 -28 -25 -70t25 -72q26 -29 67 -29zM512 1102q-94 0 -164 63t-70 159t70 162q70 64 164 64t164 -64t70 -161q0 -96 -70 -160q-70 -63 -164 -63z" />
    <glyph glyph-name="ogonek" unicode="&#x2db;" horiz-adv-x="1024" 
d="M508 -477q-108 0 -178 54t-70 153q0 147 148 270h176q-73 -91 -94 -140q-21 -50 -21 -89q0 -90 98 -90q41 0 82 18l37 -139q-70 -37 -178 -37z" />
    <glyph glyph-name="tilde" unicode="&#x2dc;" horiz-adv-x="1024" 
d="M639 1120q-73 0 -143 35t-114 35t-106 -62l-139 119q35 66 100 116t141 50t146 -35t115 -35t109 64l139 -121q-105 -166 -248 -166z" />
    <glyph glyph-name="hungarumlaut" unicode="&#x2dd;" horiz-adv-x="1024" 
d="M469 1108l188 283h349l-291 -283h-246zM31 1108l186 283h350l-291 -283h-245z" />
    <glyph glyph-name="uni0394" unicode="&#x394;" horiz-adv-x="1380" 
d="M676 1006h-4q-2 -4 -27 -94t-43 -136l-180 -506h512l-186 506q-28 77 -50 153q-22 75 -22 77zM57 0v162l469 1202h314l485 -1202v-162h-1268z" />
    <glyph glyph-name="uni03A9" unicode="&#x3a9;" horiz-adv-x="1579" 
d="M78 0v252h250q-88 63 -154 194t-65 297q0 285 197 465q198 180 482 180t484 -180q199 -180 198 -465q0 -166 -66 -297t-153 -194h250v-252h-614v238q139 90 198 204t59 283q0 168 -100 284q-100 115 -254 115t-256 -116t-102 -284q0 -167 60 -284t200 -202v-238h-614z
" />
    <glyph glyph-name="uni03BC" unicode="&#x3bc;" horiz-adv-x="1169" 
d="M117 -446v1450h311v-639q0 -70 25 -101t88 -31q92 0 186 107v664h311v-693q0 -180 29 -311h-305q-18 43 -23 129q-111 -125 -239 -143q-51 -4 -80 4h-8q8 -25 8 -195v-241h-303z" />
    <glyph glyph-name="pi" unicode="&#x3c0;" horiz-adv-x="1355" 
d="M1042 -25q-148 0 -219 81q-72 81 -71 227v487h-220q0 -440 -51 -770h-313q61 399 61 770h-186v234h1253v-234h-235v-422q0 -66 16 -92t57 -27q41 0 76 23l66 -229q-86 -48 -234 -48z" />
    <glyph glyph-name="afii10017" unicode="&#x410;" horiz-adv-x="1427" 
d="M547 1364h317l537 -1364h-361l-79 229h-521l-80 -229h-333zM868 492l-100 280q-12 35 -68 238h-4q-18 -73 -69 -238l-99 -280h340z" />
    <glyph glyph-name="afii10018" unicode="&#x411;" horiz-adv-x="1267" 
d="M492 248h131q236 0 235 186q0 176 -229 176h-137v-362zM160 1364h889v-270h-557v-236h161q236 0 381 -102q70 -51 113 -131q41 -85 41 -189t-43 -190q-84 -169 -293 -219q-98 -27 -234 -27h-458v1364z" />
    <glyph glyph-name="afii10019" unicode="&#x412;" horiz-adv-x="1251" 
d="M485 811h117q104 0 153 38q48 38 48 118q0 147 -193 147h-125v-303zM485 250h140q111 0 167 37t56 125q0 168 -211 168h-152v-330zM160 1364h487q219 0 334 -74q145 -94 145 -266q0 -252 -241 -315v-4q59 -11 106 -31t103 -70q88 -88 88 -242q0 -89 -42 -162
q-115 -200 -499 -200h-481v1364z" />
    <glyph glyph-name="afii10020" unicode="&#x413;" horiz-adv-x="1021" 
d="M160 0v1364h835v-264h-501v-1100h-334z" />
    <glyph glyph-name="afii10021" unicode="&#x414;" horiz-adv-x="1519" 
d="M965 270v824h-297l-76 -461q-49 -276 -123 -363h496zM1294 1364v-1094h140l-37 -569h-205l-27 299h-848l-20 -299h-203l-53 569h117q42 54 66 146t57 278l110 670h903z" />
    <glyph glyph-name="afii10022" unicode="&#x415;" horiz-adv-x="1103" 
d="M160 0v1364h815v-270h-488v-265h431v-254h-431v-305h502v-270h-829z" />
    <glyph glyph-name="afii10024" unicode="&#x416;" horiz-adv-x="2045" 
d="M104 270q41 0 68 15q48 16 117 135q27 43 78 133q86 141 131 184l-461 627h352l383 -551h86v551h330v-551h86l383 551h352l-463 -627q31 -31 133 -184q63 -113 85 -149q61 -102 108 -119q27 -14 70 -15h20l-4 -270h-135q-124 0 -200 53t-171 223q-8 14 -33 56t-35 63
l-55 88q-18 31 -46 51t-56 21h-39v-555h-330v555h-41q-31 0 -55 -18q-49 -43 -100 -142q-29 -45 -68 -119q-59 -100 -94 -146t-72 -71q-49 -39 -94 -49t-111 -10h-139l4 270h16z" />
    <glyph glyph-name="afii10025" unicode="&#x417;" horiz-adv-x="1101" 
d="M977 1028q0 -256 -240 -319v-4q200 -41 269 -201q24 -59 24 -147q-1 -174 -162 -285q-143 -97 -408 -97q-266 0 -425 117l143 240q121 -88 303 -88q215 0 215 168t-225 168h-160v231h125q215 0 215 160q0 150 -182 149q-158 0 -287 -96l-129 229q165 133 422 136
q213 0 359 -91q143 -98 143 -270z" />
    <glyph glyph-name="afii10026" unicode="&#x418;" horiz-adv-x="1542" 
d="M160 0v1364h309v-655l-2 -78l-2 -68l-2 -51l-2 -27h4q33 68 149 240l435 639h333v-1364h-309v715l6 190h-4q-111 -172 -137 -213l-475 -692h-303z" />
    <glyph glyph-name="afii10027" unicode="&#x419;" horiz-adv-x="1542" 
d="M771 1440q-153 0 -239 76q-55 43 -81 98q-35 59 -41 141h252q6 -121 110 -121q98 0 111 121h250q-12 -156 -121 -239q-39 -31 -113 -58q-61 -18 -128 -18zM160 0v1364h309v-655l-2 -78l-2 -68l-2 -51l-2 -27h4q33 68 149 240l435 639h333v-1364h-309v715l6 190h-4
q-111 -172 -137 -213l-475 -692h-303z" />
    <glyph glyph-name="afii10028" unicode="&#x41a;" horiz-adv-x="1347" 
d="M160 1364h332v-551h86l380 551h353l-461 -627q27 -25 131 -184q96 -172 130 -215t63 -53q27 -14 69 -15h21v-270h-140q-135 0 -204 59q-68 47 -164 217q-8 14 -33 56t-35 63l-55 88q-18 31 -46 51t-57 21h-38v-555h-332v1364z" />
    <glyph glyph-name="afii10029" unicode="&#x41b;" horiz-adv-x="1443" 
d="M1284 1364v-1364h-330v1094h-358l-33 -490q-25 -343 -143 -485q-63 -75 -147 -107t-199 -32l-31 251q156 18 190 273q14 102 23 190l53 670h975z" />
    <glyph glyph-name="afii10030" unicode="&#x41c;" horiz-adv-x="1824" 
d="M909 322q1 10 7 27t18 61l20 69q10 41 21 72l266 813h322l186 -1364h-338l-76 643q-23 158 -22 201h-4q-45 -170 -56 -197l-200 -647h-326l-201 647q-10 37 -22 80t-21 78q-8 35 -10 39h-4q0 -59 -16 -203l-80 -641h-297l188 1364h322l256 -813q10 -41 20 -72l19 -69
q2 -8 6 -26t7 -28q3 -8 5 -15t3 -12t3 -7h4z" />
    <glyph glyph-name="afii10031" unicode="&#x41d;" horiz-adv-x="1540" 
d="M160 0v1364h332v-522h559v522h327v-1364h-327v571h-559v-571h-332z" />
    <glyph glyph-name="afii10032" unicode="&#x41e;" horiz-adv-x="1593" 
d="M798 240q180 0 271 124q92 124 92 316q0 299 -192 407q-68 37 -163 37q-186 0 -286 -129q-86 -121 -88 -305q0 -98 21 -172q47 -169 175 -239q71 -39 170 -39zM1509 687q0 -293 -174 -490q-90 -102 -225 -162t-309 -60q-331 0 -535 215q-184 196 -184 492q0 295 182 489
q88 97 224 157t306 60t309 -58q138 -60 226 -154q180 -196 180 -489z" />
    <glyph glyph-name="afii10033" unicode="&#x41f;" horiz-adv-x="1501" 
d="M160 0v1364h1181v-1364h-329v1094h-520v-1094h-332z" />
    <glyph glyph-name="afii10034" unicode="&#x420;" horiz-adv-x="1245" 
d="M492 711h118q123 0 180 49q56 49 56 158q0 199 -228 198h-126v-405zM160 1364h481q104 0 211 -27q202 -60 285 -219q41 -92 41 -198t-41 -199q-47 -92 -117 -143q-70 -57 -180 -86q-92 -29 -234 -29h-114v-463h-332v1364z" />
    <glyph glyph-name="afii10035" unicode="&#x421;" horiz-adv-x="1267" 
d="M793 -25q-345 0 -539 218q-172 193 -172 491q0 296 178 490q90 98 228 156t311 59q244 0 418 -111l-146 -240q-121 78 -278 78q-88 0 -155 -34q-131 -67 -183 -222q-23 -76 -23 -171t22 -173t69 -139q100 -127 253 -127t245 52q32 17 77 50l135 -231q-84 -65 -153 -89
q-160 -57 -287 -57z" />
    <glyph glyph-name="afii10036" unicode="&#x422;" horiz-adv-x="1126" 
d="M397 0v1094h-370v270h1075v-270h-373v-1094h-332z" />
    <glyph glyph-name="afii10037" unicode="&#x423;" horiz-adv-x="1247" 
d="M299 -6q-98 0 -156 20l45 244q34 -12 94 -12t102 41t83 123l18 36l-415 918h317l258 -592l260 592h318l-457 -1004q-94 -205 -186 -278q-59 -48 -121 -68t-160 -20z" />
    <glyph glyph-name="afii10038" unicode="&#x424;" horiz-adv-x="1691" 
d="M991 1020v-645q147 4 232 93q84 89 84 225t-84 233q-94 94 -232 94zM702 375v645q-141 0 -231 -92q-43 -43 -63 -103q-23 -55 -23 -127q0 -139 91 -231t226 -92zM682 0v139q-289 8 -458 165t-169 393t170 386q171 158 457 170v111h332v-109q162 -10 268 -50
q106 -41 188 -115q166 -154 166 -390q0 -120 -48 -226q-146 -324 -574 -335v-139h-332z" />
    <glyph glyph-name="afii10039" unicode="&#x425;" horiz-adv-x="1294" 
d="M37 0l430 698l-414 666h377l234 -393l219 393h331l-391 -659l437 -705h-373l-262 438l-256 -438h-332z" />
    <glyph glyph-name="afii10040" unicode="&#x426;" horiz-adv-x="1550" 
d="M160 0v1364h329v-1094h506v1094h330v-1094h141l-39 -569h-202l-27 299h-1038z" />
    <glyph glyph-name="afii10041" unicode="&#x427;" horiz-adv-x="1363" 
d="M877 0v510q-25 -33 -62 -57q-23 -21 -78 -49q-117 -60 -234 -60q-118 0 -195 29t-127 84t-70 121q-27 66 -27 155v631h330v-565q0 -97 52 -147t134 -50t166 41q65 27 111 78v643h327v-1364h-327z" />
    <glyph glyph-name="afii10042" unicode="&#x428;" horiz-adv-x="2170" 
d="M160 0v1364h329v-1094h426v1094h330v-1094h424v1094h332v-1364h-1841z" />
    <glyph glyph-name="afii10043" unicode="&#x429;" horiz-adv-x="2226" 
d="M160 0v1364h329v-1094h426v1094h330v-1094h424v1094h332v-1094h139l-37 -569h-202l-27 299h-1714z" />
    <glyph glyph-name="afii10044" unicode="&#x42a;" horiz-adv-x="1394" 
d="M639 248h131q123 0 179 49t57 158q0 197 -228 196h-139v-403zM309 1094h-282v270h612v-463h164q104 0 211 -27q98 -30 167 -80t113 -140t43 -196q0 -108 -41 -200q-48 -92 -116 -146t-179 -83q-92 -29 -233 -29h-459v1094z" />
    <glyph glyph-name="afii10045" unicode="&#x42b;" horiz-adv-x="1878" 
d="M492 248h131q123 0 179 49t56 158q0 197 -229 196h-137v-403zM160 1364h332v-463h161q104 0 211 -27q98 -30 167 -80t116 -141q41 -87 41 -195t-41 -200q-49 -92 -117 -146t-178 -83q-92 -29 -234 -29h-458v1364zM1384 1364h334v-1364h-334v1364z" />
    <glyph glyph-name="afii10046" unicode="&#x42c;" horiz-adv-x="1245" 
d="M492 248h131q123 0 179 49t56 158q0 197 -229 196h-137v-403zM160 1364h332v-463h161q104 0 211 -27q98 -30 167 -80t116 -141q41 -87 41 -195t-41 -200q-49 -92 -117 -146t-178 -83q-92 -29 -234 -29h-458v1364z" />
    <glyph glyph-name="afii10047" unicode="&#x42d;" horiz-adv-x="1267" 
d="M463 -25q-268 0 -428 115l145 242q121 -84 289 -84q72 0 133 22q115 50 178 162q29 61 41 123h-520v254h518q-10 57 -41 117q-30 60 -68 98q-38 37 -102 64t-135 26q-141 0 -289 -96l-133 229q112 98 287 127q76 14 141 15q344 0 525 -205q180 -205 180 -502
q0 -133 -46 -262t-137 -232q-90 -96 -225 -154t-313 -59z" />
    <glyph glyph-name="afii10048" unicode="&#x42e;" horiz-adv-x="2283" 
d="M1488 240q180 0 271 124q92 124 92 316q0 299 -192 407q-68 37 -163 37q-186 0 -286 -129q-86 -121 -88 -305q0 -98 21 -172q47 -169 175 -239q71 -39 170 -39zM1503 -25q-311 0 -506 177q-86 74 -143 188t-72 231h-290v-571h-332v1364h332v-522h296q20 106 76 208
q116 209 353 296q119 43 279 43q160 1 297 -59q267 -115 361 -381q94 -265 0 -527q-39 -123 -130 -225t-225 -162t-296 -60z" />
    <glyph glyph-name="afii10049" unicode="&#x42f;" horiz-adv-x="1304" 
d="M813 768v348h-131q-115 0 -165 -43t-50 -131q0 -174 203 -174h143zM80 270h18q96 0 164 117l62 98q61 94 110 113v4q-57 6 -111 36q-107 59 -157 183q-25 61 -25 140q0 197 134 300t387 103h483v-1364h-332v551h-18q-29 -10 -56 -36t-90 -128l-63 -111q-59 -100 -94 -146
t-72 -71q-49 -39 -94 -49t-109 -10h-137v270z" />
    <glyph glyph-name="afii10065" unicode="&#x430;" horiz-adv-x="1048" 
d="M469 195q86 0 158 71v168h-33q-238 0 -238 -145q0 -45 32 -69t81 -25zM369 -25q-133 0 -221 75t-87 212q0 100 45 164q83 135 289 174q90 20 199 21h33v47q0 61 -33 89t-119 27q-137 0 -252 -90l-131 187q187 147 416 147q230 0 330 -89t100 -294v-328q0 -182 29 -317
h-305q-14 43 -19 104q-100 -129 -274 -129z" />
    <glyph glyph-name="afii10066" unicode="&#x431;" horiz-adv-x="1146" 
d="M590 207q172 0 172 282q0 135 -41 211q-25 37 -53 62q-34 22 -90 22q-98 -1 -168 -88q-4 -20 -4 -90q0 -213 45 -306t139 -93zM944 111q-136 -136 -374 -136t-373 189q-61 88 -88 209q-29 104 -29 279t29 290q55 276 270 406q102 63 270 94l332 55l39 -252l-332 -51
q-270 -51 -291 -276q98 84 246 83q86 1 170 -33q167 -67 242 -257q37 -96 37 -215t-39 -224q-41 -96 -109 -161z" />
    <glyph glyph-name="afii10067" unicode="&#x432;" horiz-adv-x="1085" 
d="M444 602h123q127 0 127 96q0 90 -123 90h-127v-186zM444 219h146q74 0 106 22t31 74q0 98 -127 99h-156v-195zM137 1004h467q149 0 264 -54q119 -67 119 -205q0 -188 -186 -229v-2q98 -14 144 -58q47 -46 65 -86t18 -106t-34 -119q-67 -105 -224 -131q-78 -14 -170 -14
h-463v1004z" />
    <glyph glyph-name="afii10068" unicode="&#x433;" horiz-adv-x="837" 
d="M137 0v1004h674v-244h-362v-760h-312z" />
    <glyph glyph-name="afii10069" unicode="&#x434;" horiz-adv-x="1247" 
d="M760 244v516h-242l-39 -293q-25 -162 -73 -223h354zM1061 1004v-760h104l-37 -543h-194l-27 299h-612l-21 -299h-192l-53 543h77q70 57 101 268l69 492h785z" />
    <glyph glyph-name="afii10070" unicode="&#x435;" horiz-adv-x="1081" 
d="M561 809q-151 0 -178 -186h330q-10 186 -152 186zM197 119q-142 142 -142 382q-1 239 143 383t366 144t336 -130t114 -376q0 -78 -4 -104h-619q23 -215 236 -215q124 0 194 35q30 12 62 28l96 -194l-23 -13q-23 -12 -47 -26t-110 -36t-210 -22q-123 0 -227 39t-165 105z
" />
    <glyph glyph-name="afii10072" unicode="&#x436;" horiz-adv-x="1681" 
d="M80 223q18 0 35 6t71 84l56 97q63 109 108 145l-325 449h333l269 -400h57v400h313v-400h56l270 400h332l-326 -449q43 -35 111 -145q41 -76 57 -104t37 -48q23 -27 35 -31t30 -4h17v-223h-139q-142 0 -211 104q-33 43 -60 99l-55 94l-43 61q-31 39 -80 39h-31v-397h-313
v397h-33q-54 0 -80 -39q-23 -25 -36 -47t-62 -108l-61 -99q-50 -74 -123 -94q-31 -10 -86 -10h-140l3 223h14z" />
    <glyph glyph-name="afii10073" unicode="&#x437;" horiz-adv-x="884" 
d="M384 213q144 0 144 102q0 65 -99 89q-38 10 -71 10h-88l2 186h78q145 0 146 98q0 43 -32 70t-91 27q-129 0 -223 -56l-97 193q141 90 326 90q173 0 283 -61q55 -35 92 -87q35 -59 34 -129q0 -190 -184 -229v-2q97 -14 158 -70q67 -66 67 -154q0 -160 -127 -239
q-117 -69 -330 -69q-212 0 -331 94l102 196q97 -59 241 -59z" />
    <glyph glyph-name="afii10074" unicode="&#x438;" horiz-adv-x="1245" 
d="M137 0v1004h277v-410l-4 -115q-4 -33 -4 -43v-18h4q0 3 45 71t75 117l271 398h307v-1004h-277v453l5 133l2 22h-2q-2 -2 -14 -19t-42 -61q-31 -44 -63 -92l-299 -436h-281z" />
    <glyph glyph-name="afii10075" unicode="&#x439;" horiz-adv-x="1245" 
d="M611 1081q-152 0 -238 76q-55 43 -82 98q-35 59 -41 142h252q6 -121 110 -121q98 0 111 121h250q-6 -79 -39 -141t-77 -96q-43 -34 -111 -56t-135 -23zM137 0v1004h277v-410l-4 -115q-4 -33 -4 -43v-18h4q0 3 45 71t75 117l271 398h307v-1004h-277v453l5 133l2 22h-2
q-2 -2 -14 -19t-42 -61q-31 -44 -63 -92l-299 -436h-281z" />
    <glyph glyph-name="afii10076" unicode="&#x43a;" horiz-adv-x="1132" 
d="M137 1004h312v-400h57l270 400h332l-326 -449q43 -35 111 -145q41 -76 57 -104t37 -48q23 -27 36 -31t30 -4h16v-223h-139q-142 0 -211 104q-33 43 -60 99l-55 94l-43 61q-31 39 -80 39h-30l-2 -397h-312v1004z" />
    <glyph glyph-name="afii10077" unicode="&#x43b;" horiz-adv-x="1189" 
d="M1053 1004v-1004h-312v760h-237l-25 -314q-22 -242 -127 -360q-51 -53 -123 -78q-77 -22 -155 -22l-39 227q69 10 107 79t55 220l51 492h805z" />
    <glyph glyph-name="afii10078" unicode="&#x43c;" horiz-adv-x="1454" 
d="M717 297q0 -4 2 -4h4v4l14 55q20 84 29 101l178 551h303l142 -1004h-316l-47 391q-6 39 -10 109l-4 45h-4l-39 -148l-115 -397h-295l-110 397q-26 59 -37 148h-4l-5 -49q-4 -16 -5 -52t-3 -51l-55 -393h-277l148 1004h301l166 -551l27 -101l10 -41q0 -4 2 -8v-6z" />
    <glyph glyph-name="afii10079" unicode="&#x43d;" horiz-adv-x="1236" 
d="M137 0v1004h312v-367h337v367h314v-1004h-314v387h-337v-387h-312z" />
    <glyph glyph-name="afii10080" unicode="&#x43e;" horiz-adv-x="1142" 
d="M575 207q100 0 141 74q40 74 40 217q0 303 -191 303q-98 0 -139 -75t-41 -218q0 -301 190 -301zM568 -25q-250 0 -388 162q-61 68 -93 164q-32 97 -32 195t31 194q65 202 252 291q104 47 232 47t226 -45t162 -117q66 -80 97 -171q63 -184 0 -382q-33 -96 -94 -170
q-67 -74 -167 -121t-226 -47z" />
    <glyph glyph-name="afii10081" unicode="&#x43f;" horiz-adv-x="1220" 
d="M137 0v1004h946v-1004h-311v754h-323v-754h-312z" />
    <glyph glyph-name="afii10082" unicode="&#x440;" horiz-adv-x="1181" 
d="M603 213q91 0 141 75t51 216q0 279 -179 278q-31 0 -61 -10l-49 -24q-27 -16 -35 -31q-20 -20 -22 -25v-420q63 -59 154 -59zM137 1004h305v-105q106 129 288 129t288 -136t106 -390q0 -113 -34 -214q-66 -199 -236 -276q-90 -37 -180 -37q-152 0 -225 66v-490h-312v1453
z" />
    <glyph glyph-name="afii10083" unicode="&#x441;" horiz-adv-x="950" 
d="M559 -25q-90 0 -190 37t-172 108q-142 140 -142 380q0 135 41 223q76 189 280 266q104 39 226 39q190 0 307 -76l-94 -211q-94 53 -202 53t-168 -75q-60 -76 -60 -212t58 -215t171 -79t213 53l91 -205l-46 -26q-35 -18 -65 -29q-78 -18 -118 -24t-130 -7z" />
    <glyph glyph-name="afii10084" unicode="&#x442;" horiz-adv-x="948" 
d="M315 0v756h-288v248h895v-248h-293v-756h-314z" />
    <glyph glyph-name="afii10085" unicode="&#x443;" horiz-adv-x="1079" 
d="M127 -227q154 0 203 94q29 61 28 63l35 97l-375 977h330l207 -619h6l182 619h318l-410 -1102q-41 -102 -78 -168t-96 -119q-112 -96 -310 -96q-101 0 -177 20l45 246q29 -12 92 -12z" />
    <glyph glyph-name="afii10086" unicode="&#x444;" horiz-adv-x="1646" 
d="M1262 502q0 137 -43 213t-122 76t-139 -60v-459q58 -59 138 -59t123 76t43 213zM385 502q0 -289 170 -289q72 0 131 59v459q-59 59 -131 60q-170 0 -170 -289zM668 -449v476q-158 -98 -361 -15q-72 31 -130 103q-120 149 -120 381t117 387q116 145 309 145q106 0 185 -53
v500h311v-500q70 53 174 53t181 -36q161 -75 225 -273q31 -98 31 -216q-1 -239 -117 -382q-59 -72 -136 -109q-91 -37 -189 -37t-169 52v-476h-311z" />
    <glyph glyph-name="afii10087" unicode="&#x445;" horiz-adv-x="1079" 
d="M371 516l-332 488h350q73 -111 116 -179q43 -69 46 -69l141 248h318l-310 -474l353 -530h-353l-182 291l-168 -291h-321z" />
    <glyph glyph-name="afii10088" unicode="&#x446;" horiz-adv-x="1269" 
d="M137 0v1004h312v-754h319v754h311v-760h109l-37 -543h-193l-28 299h-793z" />
    <glyph glyph-name="afii10089" unicode="&#x447;" horiz-adv-x="1173" 
d="M412 621q0 -138 106 -138q77 0 135 43q58 51 68 66v412h315v-1004h-315v373q-68 -68 -134 -107t-181 -41q-302 0 -306 330v449h312v-383z" />
    <glyph glyph-name="afii10090" unicode="&#x448;" horiz-adv-x="1806" 
d="M137 0v1004h312v-754h299v754h311v-754h297v754h313v-1004h-1532z" />
    <glyph glyph-name="afii10091" unicode="&#x449;" horiz-adv-x="1859" 
d="M137 0v1004h312v-754h299v754h311v-754h297v754h313v-760h109l-37 -543h-195l-28 299h-1381z" />
    <glyph glyph-name="afii10092" unicode="&#x44a;" horiz-adv-x="1169" 
d="M561 219h105q158 0 157 129q0 123 -147 123h-115v-252zM252 760h-225v244h534v-308h139q293 0 396 -192q33 -68 32 -154q0 -176 -122 -263t-338 -87h-416v760z" />
    <glyph glyph-name="afii10093" unicode="&#x44b;" horiz-adv-x="1630" 
d="M449 219h102q158 0 158 129q0 123 -148 123h-112v-252zM137 1004h312v-308h137q292 0 395 -192q33 -68 33 -154q0 -176 -122 -263t-339 -87h-416v1004zM1176 1004h315v-1004h-315v1004z" />
    <glyph glyph-name="afii10094" unicode="&#x44c;" horiz-adv-x="1054" 
d="M449 219h102q158 0 158 129q0 123 -148 123h-112v-252zM137 1004h312v-308h137q292 0 395 -192q33 -68 33 -154q0 -176 -122 -263t-339 -87h-416v1004z" />
    <glyph glyph-name="afii10095" unicode="&#x44d;" horiz-adv-x="987" 
d="M362 -16q-209 0 -331 92l125 217q92 -61 195 -61t167 43q63 44 76 122h-361v205h363q-16 80 -76 126t-162 46t-200 -63l-115 215q129 96 338 96q139 0 246 -43t170 -113q135 -135 135 -360q0 -106 -38 -202t-104 -164q-66 -67 -178 -115q-113 -41 -250 -41z" />
    <glyph glyph-name="afii10096" unicode="&#x44e;" horiz-adv-x="1734" 
d="M1167 207q100 0 141 74q40 74 40 217q0 303 -191 303q-98 0 -138 -75t-40 -218q0 -301 188 -301zM1166 -25q-217 0 -347 117t-160 295h-210v-387h-312v1004h312v-367h217q18 82 57 147q31 59 100 125q66 59 146 86q79 33 201 33t220 -45t164 -121q127 -147 126 -360
t-128 -359q-64 -74 -164 -121t-222 -47z" />
    <glyph glyph-name="afii10097" unicode="&#x44f;" horiz-adv-x="1122" 
d="M674 565v213h-111q-137 0 -137 -106t127 -107h121zM59 223h15q30 0 58 25q28 26 72 100t99 96v2q-62 14 -125 80q-61 66 -61 166q0 154 110 233q111 79 320 79h438v-1004h-311v362h-43q-46 0 -78 -30q-31 -30 -92 -144t-113 -147q-52 -41 -151 -41h-138v223z" />
    <glyph glyph-name="afii10071" unicode="&#x451;" horiz-adv-x="1081" 
d="M561 809q-151 0 -178 -186h330q-10 186 -152 186zM197 119q-142 142 -142 382q-1 239 143 383t378 144t348 -158q113 -158 86 -452h-619q23 -215 236 -215q124 0 194 35q30 12 62 28l96 -194l-23 -13q-23 -12 -47 -26t-110 -36t-210 -22q-123 0 -227 39t-165 105z
M772 1112q-72 0 -119 46t-47 112t47 112q47 48 119 48t118 -48t46 -112q0 -66 -46 -112t-118 -46zM326 1112q-72 0 -118 46t-46 112t46 112q46 48 118 48t118 -48t48 -112q0 -66 -47 -112t-119 -46z" />
    <glyph glyph-name="endash" unicode="&#x2013;" horiz-adv-x="1142" 
d="M94 426v238h955v-238h-955z" />
    <glyph glyph-name="emdash" unicode="&#x2014;" horiz-adv-x="1806" 
d="M94 426v238h1618v-238h-1618z" />
    <glyph glyph-name="quoteleft" unicode="&#x2018;" horiz-adv-x="477" 
d="M250 766q-80 0 -139 59t-60 160q0 176 152 379h188q-76 -106 -76 -193q0 -47 29 -81q30 -34 58 -71q28 -39 28 -101t-50 -107t-130 -45z" />
    <glyph glyph-name="quoteright" unicode="&#x2019;" horiz-adv-x="477" 
d="M162 971q0 65 -58 127t-57 131q0 71 50 115t130 44q81 0 139 -58q58 -60 58 -161q0 -175 -152 -378h-186q76 115 76 180z" />
    <glyph glyph-name="quotesinglbase" unicode="&#x201a;" horiz-adv-x="550" 
d="M199 -68q1 54 -57 116t-58 131t50 114t130 45t139 -59t60 -160q0 -176 -152 -379h-188q76 106 76 192z" />
    <glyph glyph-name="quotedblleft" unicode="&#x201c;" horiz-adv-x="937" 
d="M711 766q-80 0 -139 59q-58 59 -58 160q0 176 152 379h186q-76 -115 -76 -193q0 -47 29 -81t57 -71q28 -39 29 -101q0 -62 -50 -107t-130 -45zM245 766q-81 0 -140 59q-58 59 -58 160q0 176 152 379h186q-76 -116 -76 -182q1 -66 59 -126t58 -130t-50 -115t-131 -45z" />
    <glyph glyph-name="quotedblright" unicode="&#x201d;" horiz-adv-x="937" 
d="M629 971q-1 65 -59 127t-58 131q0 71 50 115t131 44t139 -58q58 -60 59 -161q0 -175 -152 -378h-186q76 115 76 180zM162 971q0 65 -58 127t-57 131q0 71 50 115t130 44q81 0 139 -58q58 -60 58 -161q0 -175 -152 -378h-186q76 115 76 180z" />
    <glyph glyph-name="quotedblbase" unicode="&#x201e;" horiz-adv-x="944" 
d="M629 -80q-1 66 -59 128t-58 131t50 114t131 45t139 -59t59 -160q0 -176 -152 -379h-186q76 115 76 180zM162 -79q0 65 -58 127t-57 131q0 69 50 114t130 45q81 0 139 -59t58 -160q0 -176 -152 -379h-186q76 115 76 181z" />
    <glyph glyph-name="dagger" unicode="&#x2020;" horiz-adv-x="1153" 
d="M74 733v271h225l139 -21l-28 211v281h333v-281l-28 -211l139 21h225v-271h-225l-139 21l39 -250l-78 -852h-199l-80 852l41 250l-139 -21h-225z" />
    <glyph glyph-name="daggerdbl" unicode="&#x2021;" horiz-adv-x="1183" 
d="M410 -346v229l28 211l-139 -20h-225v270h225l139 -20l-39 215l39 215l-139 -21h-225v271h225l139 -21l-28 211v281h333v-281l-28 -211l139 21h225v-271h-225l-139 21l37 -215l-37 -215l139 20h225v-270h-225l-139 20l28 -211v-229h-333z" />
    <glyph glyph-name="bullet" unicode="&#x2022;" horiz-adv-x="948" 
d="M474 195q-164 1 -280 115t-116 278t116 280t280 117q164 0 281 -117q115 -116 115 -280t-115 -279q-116 -114 -281 -114z" />
    <glyph glyph-name="ellipsis" unicode="&#x2026;" horiz-adv-x="1646" 
d="M1534 172q0 -80 -58 -136t-142 -56q-83 0 -140 55t-57 136t57 136t140 55q84 0 142 -55t58 -135zM823 -20q-84 0 -141 55t-57 136t57 136t141 55q83 0 141 -55t58 -136t-58 -136t-141 -55zM311 -20q-84 0 -141 55t-57 136t57 136t141 55q83 0 141 -55t58 -136t-58 -136
t-141 -55z" />
    <glyph glyph-name="perthousand" unicode="&#x2030;" horiz-adv-x="2660" 
d="M502 0l602 1004h258l-602 -1004h-258zM2251 164q100 0 100 142t-102 143q-106 0 -107 -138q0 -61 27 -104t82 -43zM2617 312q0 -140 -98 -238t-273 -99q-174 1 -270 93t-96 233t98 239t272 97q174 0 271 -92q96 -93 96 -233zM1452 164q100 0 100 142t-102 143
q-104 0 -104 -138q0 -63 26 -105t80 -42zM1447 -25q-175 1 -270 93t-95 233t98 239t272 97q174 0 270 -92q96 -93 96 -233t-98 -238t-273 -99zM310 698q0 -142 103 -143q103 0 103 142t-104 143q-102 0 -102 -142zM780 705q0 -141 -98 -239t-271 -99q-173 0 -271 93
q-97 93 -97 233q0 139 98 237q97 98 273 98t271 -91t95 -232z" />
    <glyph glyph-name="guilsinglleft" unicode="&#x2039;" horiz-adv-x="671" 
d="M295 106l-238 396l238 397h328l-236 -397l236 -396h-328z" />
    <glyph glyph-name="guilsinglright" unicode="&#x203a;" horiz-adv-x="671" 
d="M49 106l236 398l-236 395h326l239 -395l-239 -398h-326z" />
    <glyph glyph-name="fraction" unicode="&#x2044;" horiz-adv-x="305" 
d="M-389 0l831 1364h246l-831 -1364h-246z" />
    <glyph glyph-name="uni2070" unicode="&#x2070;" horiz-adv-x="794" 
d="M307 1020q0 -174 90 -174t90 174t-90 174t-90 -174zM396 664q-169 0 -256 100t-87 257t86 257t256 100t258 -101t88 -257t-88 -256t-257 -100z" />
    <glyph glyph-name="uni2074" unicode="&#x2074;" horiz-adv-x="770" 
d="M340 967h51v159h-2l-135 -165q18 6 86 6zM383 676v121h-346v141l358 428h226v-399h106v-170h-106v-121h-238z" />
    <glyph glyph-name="uni2075" unicode="&#x2075;" horiz-adv-x="651" 
d="M223 664q-104 0 -174 20l35 178q47 -20 133 -20q117 0 117 63q0 68 -139 68q-78 0 -109 -8l25 401h450v-178h-242l-6 -68q270 -20 271 -205q0 -121 -100 -186t-261 -65z" />
    <glyph glyph-name="uni2076" unicode="&#x2076;" horiz-adv-x="731" 
d="M444 889q0 69 -94 69q-47 0 -67 -18v-16q1 -49 25 -74t61 -25q76 0 75 64zM358 664q-138 0 -217 87q-78 87 -78 247q-1 160 133 271q134 110 357 109l53 -157q-114 -4 -200 -43t-115 -107q57 37 150 37t160 -53t67 -159t-86 -169t-224 -63z" />
    <glyph glyph-name="uni2077" unicode="&#x2077;" horiz-adv-x="673" 
d="M41 1174v192h569v-109l-278 -614l-215 74l211 457h-287z" />
    <glyph glyph-name="uni2078" unicode="&#x2078;" horiz-adv-x="712" 
d="M428 1184q0 49 -68 49t-67 -49q0 -33 74 -72q61 41 61 72zM352 807q37 0 61 15t23 36t-12 30q-12 9 -22 15t-17 10q-8 3 -21 11t-22 12q-78 -43 -78 -76q0 -25 26 -39t62 -14zM354 664q-127 0 -213 49t-86 139t140 164q-119 82 -119 169t84 140t200 53t198 -51
q83 -51 83 -131t-125 -156q141 -72 141 -172t-88 -152t-215 -52z" />
    <glyph glyph-name="uni2079" unicode="&#x2079;" horiz-adv-x="729" 
d="M362 1081q43 0 72 19v16q0 47 -25 74q-26 27 -61 27q-35 -1 -55 -19t-21 -47q0 -70 90 -70zM268 934q-86 0 -154 52q-67 52 -67 159t86 170q85 63 225 63t219 -88t78 -235q0 -177 -132 -285t-357 -108l-53 155q109 4 197 45t118 107q-74 -35 -160 -35z" />
    <glyph glyph-name="uni207A" unicode="&#x207a;" horiz-adv-x="671" 
d="M238 784v146h-162v174h162v147h194v-147h166v-174h-166v-146h-194z" />
    <glyph glyph-name="uni207B" unicode="&#x207b;" horiz-adv-x="620" 
d="M98 930v170h424v-170h-424z" />
    <glyph glyph-name="uni207D" unicode="&#x207d;" horiz-adv-x="505" 
d="M74 1016q0 152 60 268t145 180h229q-78 -59 -135 -181t-57 -266t56 -267t136 -189h-229q-205 178 -205 455z" />
    <glyph glyph-name="uni207E" unicode="&#x207e;" horiz-adv-x="505" 
d="M190 1012q0 146 -56 268q-56 123 -136 184h229q85 -68 145 -182t60 -266q0 -285 -205 -455h-229q80 65 136 185t56 266z" />
    <glyph glyph-name="uni2080" unicode="&#x2080;" horiz-adv-x="794" 
d="M397 -240q90 0 90 174t-90 175q-90 -1 -90 -175t90 -174zM53 -66q0 156 86 258q86 100 256 100t258 -100q88 -102 88 -258t-88 -256t-257 -100t-256 100t-87 256z" />
    <glyph glyph-name="uni2081" unicode="&#x2081;" horiz-adv-x="604" 
d="M219 -410v490l-149 -37l-50 182l261 54h176v-689h-238z" />
    <glyph glyph-name="uni2082" unicode="&#x2082;" horiz-adv-x="708" 
d="M45 -410v123q197 149 255 211t56 121q0 66 -74 66t-149 -64l-110 148q113 98 273 98q160 -1 238 -61t76 -152q0 -92 -59 -161t-170 -152q37 4 102 4h154v-181h-592z" />
    <glyph glyph-name="uni2083" unicode="&#x2083;" horiz-adv-x="669" 
d="M594 -195q0 -107 -98 -167t-252 -60t-205 23l43 174q68 -23 133 -23q123 0 123 53q0 59 -176 64v135q160 4 160 70q0 45 -66 45t-129 -37l-82 145q103 66 243 66t210 -43q70 -42 70 -112t-46 -110q-45 -40 -104 -55v-2q70 -10 123 -49t53 -117z" />
    <glyph glyph-name="uni2084" unicode="&#x2084;" horiz-adv-x="770" 
d="M340 -119h51v160h-2l-135 -164q37 4 86 4zM383 -410v121h-346v142l358 428h226v-400h106v-170h-106v-121h-238z" />
    <glyph glyph-name="uni2085" unicode="&#x2085;" horiz-adv-x="651" 
d="M244 -422q-140 0 -195 23l35 176q66 -20 133 -21q117 0 117 64q0 70 -139 69q-78 0 -109 -8l25 400h450v-177h-242l-6 -69q270 -20 271 -205q0 -120 -100 -186t-240 -66z" />
    <glyph glyph-name="uni2086" unicode="&#x2086;" horiz-adv-x="731" 
d="M369 -260q35 0 55 18t20 49t-23 50q-24 18 -67 18t-71 -18v-19q-1 -46 25 -72t61 -26zM446 23q88 -1 155 -53t67 -158t-86 -170t-224 -64t-216 87q-79 87 -79 248q-1 161 133 271t357 109l53 -156q-114 -4 -200 -43t-115 -106q67 35 155 35z" />
    <glyph glyph-name="uni2087" unicode="&#x2087;" horiz-adv-x="673" 
d="M41 88v193h569v-109l-278 -612l-215 71l211 457h-287z" />
    <glyph glyph-name="uni2088" unicode="&#x2088;" horiz-adv-x="712" 
d="M428 98q0 49 -68 49t-67 -49q0 -11 4 -17q4 -5 6 -9t7 -8t9 -7q3 -2 11 -7t12 -7t12 -7t13 -7q61 41 61 69zM352 -276q37 0 61 14q23 14 23 28q-1 36 -43 58q-16 8 -29 15t-22 11q-78 -43 -78 -75q0 -23 26 -37t62 -14zM657 -218q0 -100 -88 -152t-215 -52t-213 50
t-86 140t140 164q-119 76 -119 165t84 143t200 53q116 0 198 -50q83 -51 83 -133t-125 -153q141 -76 141 -175z" />
    <glyph glyph-name="uni2089" unicode="&#x2089;" horiz-adv-x="729" 
d="M363 -2q44 0 71 16v19q0 47 -26 73t-60 25q-35 0 -55 -18q-21 -18 -21 -48q0 -31 24 -49t67 -18zM268 -152q-86 0 -154 54q-67 54 -67 158q0 106 86 169q85 63 225 63t219 -86q79 -87 79 -248q0 -162 -134 -272q-133 -110 -356 -110l-53 158q111 4 197 44t118 105
q-74 -35 -160 -35z" />
    <glyph glyph-name="Euro" unicode="&#x20ac;" horiz-adv-x="1204" 
d="M66 727v213h143q55 207 206 328t389 121t374 -91l-131 -241q-98 61 -236 61q-180 0 -258 -178h309v-213h-348v-98h348v-211h-305q74 -170 252 -170q139 0 256 82l123 -232q-164 -123 -386 -123t-378 109t-215 334h-143v211h114q-2 18 -2 55v43h-112z" />
    <glyph glyph-name="uni2117" unicode="&#x2117;" horiz-adv-x="1693" 
d="M776 750h84q139 0 139 122t-137 121h-86v-243zM567 322v831h314q161 0 243 -77q82 -76 82 -200t-85 -201t-263 -77h-82v-276h-209zM846 145q254 0 416 162t162 427t-162 428t-416 163t-416 -163t-162 -428t162 -427t416 -162zM847 -29q-315 1 -539 225t-224 539t224 539
t538 225q314 0 539 -224q225 -223 225 -539t-224 -540t-539 -225z" />
    <glyph glyph-name="trademark" unicode="&#x2122;" horiz-adv-x="1529" 
d="M242 754v456h-181v154h547v-154h-178v-456h-188zM1051 961h4l12 41q14 52 27 81l96 281h190l84 -610h-194l-25 241q-8 63 -8 99h-4q0 -41 -29 -117l-76 -223h-165l-72 223l-33 117h-4q0 -27 -8 -101l-29 -239h-172l86 610h187l98 -281q35 -86 35 -122z" />
    <glyph glyph-name="Omega" unicode="&#x2126;" horiz-adv-x="1513" 
d="M78 0v250h223q-90 66 -157 198t-66 295q0 287 197 466q198 179 481 179q282 0 480 -178q198 -180 198 -467q0 -164 -67 -296t-157 -197h222v-250h-578v238q138 88 198 204t60 282q0 167 -102 284q-102 116 -254 116t-254 -116t-102 -284q0 -167 60 -283t197 -203v-238
h-579z" />
    <glyph glyph-name="partialdiff" unicode="&#x2202;" horiz-adv-x="1347" 
d="M602 250q104 0 182 82t107 231q-45 33 -120 58t-157 25t-132 -63q-52 -63 -52 -147t50 -135t122 -51zM1251 754q1 -346 -185 -561q-186 -216 -501 -216q-205 -1 -344 133t-139 316q0 219 143 347t337 128t327 -57q-47 216 -217 283q-146 59 -365 59l76 291l84 2
q369 1 577 -189t207 -536z" />
    <glyph glyph-name="Delta" unicode="&#x2206;" horiz-adv-x="1775" 
d="M555 295h651l-325 743zM113 0l616 1436h303l617 -1436h-1536z" />
    <glyph glyph-name="product" unicode="&#x220f;" horiz-adv-x="1875" 
d="M344 -459v1610h-223v283h1587v-283h-223v-1610h-311v1610h-519v-1610h-311z" />
    <glyph glyph-name="summation" unicode="&#x2211;" horiz-adv-x="1378" 
d="M109 -299v201l555 796l-523 697v200h1121v-268h-756l477 -620l-514 -736h823v-270h-1183z" />
    <glyph glyph-name="minus" unicode="&#x2212;" horiz-adv-x="1126" 
d="M176 453v233h756v-233h-756z" />
    <glyph glyph-name="uni2219" unicode="&#x2219;" horiz-adv-x="552" 
d="M276 401q-84 -1 -141 55t-57 138t57 137t141 55t142 -55t57 -137q1 -82 -57 -138t-142 -55z" />
    <glyph glyph-name="radical" unicode="&#x221a;" horiz-adv-x="1198" 
d="M412 0l-383 1004h331l197 -584h4l326 1055h315l-500 -1475h-290z" />
    <glyph glyph-name="infinity" unicode="&#x221e;" horiz-adv-x="1986" 
d="M1454 406q55 0 101 34q47 34 47 87q0 52 -48 84t-118 32q-72 0 -226 -115q154 -122 244 -122zM526 406q86 0 240 116q-162 121 -242 121q-55 0 -103 -32t-48 -86q0 -55 46 -87t107 -32zM522 141q-180 1 -304 105t-124 271t129 279t315 112t453 -210q137 102 247 156
t220 53q176 0 298 -104q122 -103 122 -271t-129 -278t-315 -111q-186 0 -453 209q-279 -211 -459 -211z" />
    <glyph glyph-name="uni2224" unicode="&#x2224;" horiz-adv-x="552" 
d="M276 401q-84 -1 -141 55t-57 138t57 137t141 55t142 -55t57 -137q1 -82 -57 -138t-142 -55z" />
    <glyph glyph-name="logicaland" unicode="&#x2227;" horiz-adv-x="552" 
d="M276 401q-84 -1 -141 55t-57 138t57 137t141 55t142 -55t57 -137q1 -82 -57 -138t-142 -55z" />
    <glyph glyph-name="integral" unicode="&#x222b;" horiz-adv-x="749" 
d="M72 -479q-139 0 -258 92l110 256q98 -49 172 -49q123 0 123 219v1175q0 199 122 332t337 133q135 0 260 -94l-113 -254q-98 49 -172 49q-125 0 -125 -219v-1177q0 -199 -120 -331t-336 -132z" />
    <glyph glyph-name="approxequal" unicode="&#x2248;" horiz-adv-x="1323" 
d="M443 1016q105 0 227 -60t176 -59q123 0 229 129l117 -225q-58 -78 -154 -123t-204 -45t-228 59q-121 60 -176 60q-56 0 -102 -28t-105 -101l-127 219q58 78 150 126t197 48zM471 553q104 0 225 -59t176 -60q125 0 230 131l117 -225q-57 -78 -153 -123t-204 -45
q-106 0 -227 59t-178 59t-103 -28t-102 -102l-129 221q137 172 348 172z" />
    <glyph glyph-name="notequal" unicode="&#x2260;" horiz-adv-x="1390" 
d="M125 246v227h416l65 109h-481v227h620l177 287l202 -113l-110 -174h250v-227h-392l-63 -109h455v-227h-596l-199 -334l-203 111l135 223h-276z" />
    <glyph glyph-name="lessequal" unicode="&#x2264;" horiz-adv-x="1103" 
d="M125 -340v238h940v-238h-940zM1065 0l-940 410v215l940 409v-286l-619 -230l619 -229v-289z" />
    <glyph glyph-name="greaterequal" unicode="&#x2265;" horiz-adv-x="1187" 
d="M125 -340v238h940v-238h-940zM125 0v289l618 229l-618 230v286l940 -409v-215z" />
    <glyph glyph-name="dotmath" unicode="&#x22c5;" horiz-adv-x="552" 
d="M276 401q-84 -1 -141 55t-57 138t57 137t141 55t142 -55t57 -137q1 -82 -57 -138t-142 -55z" />
    <glyph glyph-name="lozenge" unicode="&#x25ca;" horiz-adv-x="1505" 
d="M778 293l283 403l-295 383l-285 -405zM631 -2l-522 668l518 718h280l525 -675l-517 -711h-284z" />
    <glyph glyph-name="uniFB01" unicode="&#xfb01;" horiz-adv-x="1236" 
d="M178 0v774h-145v230h145v86q0 194 124 302t344 108t378 -87l-104 -227q-104 59 -234 59q-197 0 -197 -180v-61h625v-1004h-311v774h-314v-774h-311z" />
    <glyph glyph-name="uniFB02" unicode="&#xfb02;" horiz-adv-x="1263" 
d="M178 0v774h-145v230h145v88q0 192 128 300t386 108t432 -64v-1436h-311v1227q-51 18 -151 18q-172 0 -173 -180v-61h201v-230h-201v-774h-311z" />
    <glyph glyph-name="numbersign.case" horiz-adv-x="1161" 
d="M473 582h199l30 206h-198zM182 0l54 360h-207l37 230h204l29 190h-203l37 230h201l55 354h209l-55 -354h188l53 354h209l-53 -354h193l-39 -230h-189l-28 -190h190l-37 -230h-188l-54 -360h-208l53 360h-189l-53 -360h-209z" />
    <glyph glyph-name="dollar.case" horiz-adv-x="1069" 
d="M565 1126q-170 0 -170 -125q0 -56 47 -88t117 -62q69 -30 152 -68t183 -125q99 -86 98 -254q-1 -167 -88 -270t-245 -140v-236h-247v222q-215 18 -357 129l133 227q143 -98 289 -98q96 0 150 37q53 39 53 89q0 82 -92 125q-35 17 -104 47t-111 52q-139 68 -212 162
t-73 243t88 249t236 132v232h247v-226q180 -20 295 -108l-127 -228q-145 82 -262 82z" />
    <glyph glyph-name="percent.case" horiz-adv-x="1806" 
d="M369 0l815 1364h250l-816 -1364h-249zM1380 168q121 0 121 168q0 72 -31 121t-92 49q-123 0 -123 -162q0 -74 31 -125t94 -51zM1380 696q182 0 282 -100t101 -253q-1 -153 -103 -259t-283 -107q-181 1 -282 103t-101 254t102 257t284 105zM428 860q121 0 121 168
q0 74 -30 122t-93 48q-121 0 -121 -162q0 -74 30 -125t93 -51zM426 670q-182 0 -284 102q-101 102 -101 254t102 256q103 104 285 104t284 -100t101 -252t-103 -258t-284 -106z" />
    <glyph glyph-name="parenleft.case" horiz-adv-x="735" 
d="M735 -231h-295q-365 389 -364 919q0 203 63 392t139 302q75 113 162 201h295q-127 -143 -225 -367t-98 -522q-1 -528 323 -925z" />
    <glyph glyph-name="parenright.case" horiz-adv-x="737" 
d="M328 670q0 516 -328 913h299q145 -145 255 -375t110 -522q0 -212 -66 -408t-140 -308t-159 -201h-299q328 385 328 901z" />
    <glyph glyph-name="hyphen.case" horiz-adv-x="688" 
d="M102 582v249h486v-249h-486z" />
    <glyph glyph-name="slash.case" horiz-adv-x="952" 
d="M0 -330l651 1805h301l-651 -1805h-301z" />
    <glyph glyph-name="less.case" horiz-adv-x="862" 
d="M606 8l-534 496l530 506l166 -172l-344 -328l350 -322z" />
    <glyph glyph-name="equal.case" horiz-adv-x="1050" 
d="M100 614v234h848v-234h-848zM100 215v234h848v-234h-848z" />
    <glyph glyph-name="greater.case" horiz-adv-x="862" 
d="M260 8l-168 172l344 328l-350 323l170 179l535 -496z" />
    <glyph glyph-name="bracketleft.case" horiz-adv-x="722" 
d="M125 -225v1804h543v-229h-246v-1344h246v-231h-543z" />
    <glyph glyph-name="bracketright.case" horiz-adv-x="722" 
d="M53 -225v231h248v1344h-248v229h545v-1804h-545z" />
    <glyph glyph-name="braceleft.case" horiz-adv-x="862" 
d="M807 -225h-268q-100 0 -177 70q-76 71 -75 196v330q1 96 -55 146t-181 54v236q125 4 180 52t56 149v309q1 129 75 195t181 67h264v-229h-123q-57 0 -79 -33t-21 -100v-279q0 -190 -181 -244v-4q180 -59 181 -258v-295q0 -79 17 -105t81 -26h125v-231z" />
    <glyph glyph-name="braceright.case" horiz-adv-x="862" 
d="M53 -225v231h125q57 0 79 33t22 100v299q0 190 180 244v4q-180 59 -180 258v275q-1 75 -19 103t-80 28h-127v229h271q100 0 176 -70t75 -194v-307q-1 -98 55 -148t181 -53v-236q-123 -4 -179 -53t-57 -147v-332q-1 -129 -75 -197t-181 -67h-266z" />
    <glyph glyph-name="exclamdown.case" horiz-adv-x="624" 
d="M139 0l58 885h247l58 -885h-363zM322 1018q-84 0 -139 53q-54 53 -54 130t54 130q55 53 139 53t137 -53t53 -130t-53 -130t-137 -53z" />
    <glyph glyph-name="guillemotleft.case" horiz-adv-x="1144" 
d="M778 305l-237 395l237 398h318l-236 -398l236 -395h-318zM295 305l-238 395l238 398h317l-235 -398l235 -395h-317z" />
    <glyph glyph-name="uni00AD.case" horiz-adv-x="688" 
d="M102 582v249h486v-249h-486z" />
    <glyph glyph-name="guillemotright.case" horiz-adv-x="1144" 
d="M532 305l236 397l-236 396h318l237 -396l-237 -397h-318zM49 305l236 397l-236 396h316l237 -396l-237 -397h-316z" />
    <glyph glyph-name="questiondown.case" horiz-adv-x="847" 
d="M518 1018q-84 0 -137 53t-53 130t53 130t137 53t138 -53t54 -130t-54 -130t-138 -53zM486 -25q-212 1 -322 99t-111 264q0 166 172 297q15 12 59 42t58 42q45 39 45 98v72h266v-105q1 -90 -33 -143t-103 -99t-97 -85t-29 -99q0 -129 160 -129q74 0 178 50l107 -228
q-138 -76 -350 -76z" />
    <glyph glyph-name="endash.case" horiz-adv-x="1142" 
d="M94 584v237h955v-237h-955z" />
    <glyph glyph-name="emdash.case" horiz-adv-x="1806" 
d="M94 584v237h1618v-237h-1618z" />
    <glyph glyph-name="perthousand.case" horiz-adv-x="2656" 
d="M369 0l815 1364h250l-816 -1364h-249zM2230 168q121 0 121 168q0 72 -31 121t-92 49q-123 0 -123 -162q0 -74 31 -125t94 -51zM2230 696q182 0 282 -100t101 -253q-1 -153 -103 -259t-283 -107q-181 1 -282 103t-101 254t102 257t284 105zM1380 168q121 0 121 168
q0 72 -31 121t-92 49q-123 0 -123 -162q0 -74 31 -125t94 -51zM1380 696q182 0 282 -100t101 -253q-1 -153 -103 -259t-283 -107q-181 1 -282 103t-101 254t102 257t284 105zM428 860q121 0 121 168q0 74 -30 122t-93 48q-121 0 -121 -162q0 -74 30 -125t93 -51zM426 670
q-182 0 -284 102q-101 102 -101 254t102 256q103 104 285 104t284 -100t101 -252t-103 -258t-284 -106z" />
    <glyph glyph-name="guilsinglleft.case" horiz-adv-x="671" 
d="M295 305l-238 395l238 398h328l-236 -398l236 -395h-328z" />
    <glyph glyph-name="guilsinglright.case" horiz-adv-x="671" 
d="M49 305l236 397l-236 396h326l239 -396l-239 -397h-326z" />
    <glyph glyph-name="zero.dnom" horiz-adv-x="794" 
d="M397 170q90 0 90 174t-90 174t-90 -174t90 -174zM396 -12q-169 0 -256 100t-87 256t86 257t256 101t258 -101t88 -257t-88 -256t-257 -100z" />
    <glyph glyph-name="one.dnom" horiz-adv-x="604" 
d="M219 0v489l-149 -36l-50 182l261 53h176v-688h-238z" />
    <glyph glyph-name="two.dnom" horiz-adv-x="708" 
d="M45 0v123q197 149 255 211t56 121q0 65 -74 65t-149 -63l-110 147q113 98 273 98t238 -60t76 -152q0 -92 -59 -162q-59 -68 -170 -152q37 4 102 4h154v-180h-592z" />
    <glyph glyph-name="three.dnom" horiz-adv-x="669" 
d="M244 -12q-154 0 -205 22l43 174q68 -23 133 -22q123 0 123 53q0 59 -176 64v135q160 4 160 69q0 45 -66 45t-129 -36l-82 145q103 65 243 65t210 -43t70 -112t-46 -109q-45 -40 -104 -55v-2q70 -10 123 -49t53 -117q0 -106 -97 -167q-99 -60 -253 -60z" />
    <glyph glyph-name="four.dnom" horiz-adv-x="770" 
d="M340 291h51v160h-2l-135 -164q37 4 86 4zM383 0v121h-346v141l358 428h226v-399h106v-170h-106v-121h-238z" />
    <glyph glyph-name="five.dnom" horiz-adv-x="651" 
d="M244 -12q-140 0 -195 22l35 176q66 -20 133 -20q117 0 117 63q0 70 -139 70q-78 0 -109 -8l25 399h450v-176h-242l-6 -70q270 -20 271 -204q0 -120 -100 -186t-240 -66z" />
    <glyph glyph-name="six.dnom" horiz-adv-x="731" 
d="M369 150q35 0 55 18t20 49q0 65 -90 67q-43 0 -71 -18v-18q0 -47 25 -73q26 -25 61 -25zM358 -12q-138 0 -216 87q-79 87 -79 247q-1 160 133 271q134 110 357 109l53 -155q-114 -4 -200 -43t-115 -107q67 35 155 35t155 -52t67 -159t-86 -170t-224 -63z" />
    <glyph glyph-name="seven.dnom" horiz-adv-x="673" 
d="M41 498v192h569v-108l-278 -613l-215 72l211 457h-287z" />
    <glyph glyph-name="eight.dnom" horiz-adv-x="712" 
d="M428 508q0 49 -68 49t-67 -49q0 -11 4 -17t6 -10t7 -8t9 -6q3 -2 11 -7t12 -7q4 -1 12 -7t13 -8q61 41 61 70zM352 133q37 0 64 16t20 39t-25 34q-43 27 -69 38q-78 -43 -78 -76q0 -23 26 -37t62 -14zM354 -12q-127 0 -213 50t-86 140t140 164q-119 76 -119 165t84 142
t200 53t198 -50q83 -50 83 -132t-125 -153q141 -75 141 -175t-88 -152t-215 -52z" />
    <glyph glyph-name="nine.dnom" horiz-adv-x="729" 
d="M348 541q-35 -1 -55 -19q-21 -18 -21 -48t24 -48t67 -18q44 0 71 16v18q0 47 -25 73q-26 26 -61 26zM268 258q-86 0 -154 53q-67 53 -67 159t86 169q85 63 225 63t219 -87t79 -247t-134 -272q-133 -110 -356 -110l-53 157q111 4 197 44t118 106q-74 -35 -160 -35z" />
    <glyph glyph-name="zero.lf" horiz-adv-x="1267" 
d="M633 221q123 0 177 114t54 346t-55 347t-178 115t-176 -114t-53 -346t54 -347t177 -115zM633 -25q-145 1 -257 59t-178 160q-133 205 -131 493q1 288 127 483q64 102 176 160t260 58t261 -58q203 -105 276 -384q33 -123 33 -263q0 -286 -131 -488q-67 -100 -179 -160
t-257 -60z" />
    <glyph glyph-name="one.lf" horiz-adv-x="819" 
d="M340 0v1094l-260 -76l-66 244l398 102h237v-1364h-309z" />
    <glyph glyph-name="two.lf" horiz-adv-x="1071" 
d="M43 0v166q117 104 168 152t148 148t143 167q123 180 123 319q0 94 -48 140t-126 47q-150 0 -277 -127l-147 194q195 182 469 183q227 0 346 -111t119 -294t-128 -364t-356 -380q90 8 150 8h364v-248h-948z" />
    <glyph glyph-name="three.lf" horiz-adv-x="1013" 
d="M297 -25q-154 0 -246 31l51 244q86 -27 185 -27q299 0 299 189q0 102 -86 145t-271 45v213q154 4 238 56t84 139q0 131 -164 131q-123 0 -223 -80l-131 201q179 127 401 127t332 -86q110 -85 108 -219q0 -134 -80 -215t-198 -113v-4q129 -14 227 -104t99 -234
q0 -205 -169 -322t-456 -117z" />
    <glyph glyph-name="four.lf" horiz-adv-x="1245" 
d="M504 512h176v449h-4l-322 -455q43 6 150 6zM676 0v274h-629v203l651 887h287v-852h201v-238h-201v-274h-309z" />
    <glyph glyph-name="five.lf" horiz-adv-x="980" 
d="M260 -25q-137 0 -217 25l45 248q90 -25 198 -25t193 53q84 53 84 164q0 209 -313 209q-92 0 -146 -12l43 727h707v-248h-426l-14 -231q225 -8 353 -117q128 -110 128 -324t-172 -342t-463 -127z" />
    <glyph glyph-name="six.lf" horiz-adv-x="1171" 
d="M397 541q-1 -166 57 -249t145 -83t132 56t45 147q0 211 -178 211q-119 0 -201 -72v-10zM602 -25q-262 0 -396 173t-134 434q0 366 236 586t638 221l68 -252q-285 0 -441 -113q-123 -96 -157 -246q102 76 272 76t295 -115t125 -317t-144 -324q-144 -123 -362 -123z" />
    <glyph glyph-name="seven.lf" horiz-adv-x="1003" 
d="M39 1106v258h887v-162l-518 -1257l-277 94l440 1067h-532z" />
    <glyph glyph-name="eight.lf" horiz-adv-x="1107" 
d="M698 1026q0 63 -35 100q-36 37 -104 37q-69 0 -105 -36t-36 -93q0 -108 147 -190q133 92 133 182zM551 203q84 0 128 42q44 43 44 109t-49 115t-146 102q-152 -94 -151 -217q0 -70 45 -110t129 -41zM1047 356q1 -180 -135 -280t-363 -101q-227 1 -359 99t-131 270
q0 209 258 352q-106 59 -161 135t-56 187q0 164 130 267t333 103t327 -90q124 -92 124 -265t-236 -306q127 -68 198 -153t71 -218z" />
    <glyph glyph-name="nine.lf" horiz-adv-x="1167" 
d="M389 952q1 -211 197 -211q100 0 182 72v10q0 162 -56 247t-144 85t-133 -56q-46 -56 -46 -147zM477 510q-169 0 -295 115q-125 115 -125 317q1 202 145 324q144 123 357 123q139 -1 243 -49t166 -133q124 -171 124 -425q0 -377 -226 -598t-637 -221l-65 252q123 0 246 34
t194 95q113 92 146 244q-104 -78 -273 -78z" />
    <glyph glyph-name="exclam.sc" horiz-adv-x="567" 
d="M166 401l-51 676h338l-47 -676h-240zM285 -18q-78 0 -128 49q-51 49 -51 118t52 117t127 49q76 0 126 -49q50 -50 50 -118t-49 -117t-127 -49z" />
    <glyph glyph-name="ampersand.sc" horiz-adv-x="1196" 
d="M500 193q66 0 125 32l-195 213q-74 -56 -74 -120q0 -126 144 -125zM637 829q0 37 -25 59q-24 22 -62 22t-62 -22q-67 -60 49 -186q100 63 100 127zM446 -18q-178 0 -283 82t-105 206q0 126 56 198q58 72 175 132q-101 118 -101 234t100 190t262 74q161 0 251 -71t90 -179
q0 -150 -229 -279l145 -161q31 53 59 163l240 -43q-31 -166 -141 -301l204 -227h-344l-57 63q-144 -81 -322 -81z" />
    <glyph glyph-name="question.sc" horiz-adv-x="745" 
d="M308 -18q-77 0 -127 49t-50 118t51 117t126 49q75 0 125 -49q50 -48 50 -118t-49 -118t-126 -48zM184 403v56q0 131 109 200q90 61 90 121q0 82 -119 82q-80 0 -145 -37l-99 205q128 68 312 68t277 -79t93 -204t-124 -223q-16 -12 -52 -36t-50 -36q-16 -12 -30 -37
t-14 -53v-27h-248z" />
    <glyph glyph-name="a.sc" horiz-adv-x="1234" 
d="M27 0l434 1077h297l448 -1077h-334l-61 168h-416l-59 -168h-309zM469 389h264l-69 195q-61 180 -62 192h-4l-8 -26q-9 -42 -51 -166z" />
    <glyph glyph-name="b.sc" horiz-adv-x="1079" 
d="M440 643h86q150 0 150 113q0 106 -144 106h-92v-219zM440 221h109q88 0 126 26t38 87q0 117 -154 117h-119v-230zM135 0v1077h428q408 0 408 -274q0 -199 -201 -246v-4q104 -14 175 -80t71 -176q0 -297 -457 -297h-424z" />
    <glyph glyph-name="c.sc" horiz-adv-x="1077" 
d="M664 -18q-287 0 -439 160q-151 160 -151 396t156 398t446 162q217 0 344 -92l-129 -224q-98 62 -220 62t-194 -79q-71 -79 -71 -220t69 -226q70 -83 204 -83t234 75l117 -223q-147 -106 -366 -106z" />
    <glyph glyph-name="d.sc" horiz-adv-x="1251" 
d="M446 244h99q305 0 305 301q0 155 -75 223t-240 68h-89v-592zM135 0v1077h395q322 0 485 -140t163 -385q0 -244 -168 -398t-490 -154h-385z" />
    <glyph glyph-name="e.sc" horiz-adv-x="978" 
d="M135 0v1077h727v-239h-422v-181h377v-219h-377v-196h434v-242h-739z" />
    <glyph glyph-name="f.sc" horiz-adv-x="929" 
d="M135 0v1077h709v-243h-398v-211h357v-230h-357v-393h-311z" />
    <glyph glyph-name="g.sc" horiz-adv-x="1228" 
d="M674 -18q-276 0 -438 160t-162 396q0 234 174 397t473 163q227 0 377 -92l-129 -230q-119 66 -263 66t-224 -77q-79 -77 -79 -225t73 -232q73 -83 220 -83q76 0 138 23v155h-179v218h475v-541q-180 -98 -456 -98z" />
    <glyph glyph-name="h.sc" horiz-adv-x="1306" 
d="M135 0v1077h311v-397h416v397h309v-1077h-309v428h-416v-428h-311z" />
    <glyph glyph-name="i.sc" horiz-adv-x="602" 
d="M145 0v1077h312v-1077h-312z" />
    <glyph glyph-name="j.sc" horiz-adv-x="636" 
d="M131 -365q-111 0 -211 35l47 240q135 -44 190 11q30 30 29 108v1048h316v-1081q0 -176 -100 -268t-271 -93z" />
    <glyph glyph-name="k.sc" horiz-adv-x="1153" 
d="M135 0v1077h311v-450l345 450h331l-379 -495l383 -582h-342l-338 510v-510h-311z" />
    <glyph glyph-name="l.sc" horiz-adv-x="942" 
d="M141 0v1077h312v-833h424v-244h-736z" />
    <glyph glyph-name="m.sc" horiz-adv-x="1554" 
d="M772 293q-11 0 49 174l203 610h303l152 -1077h-316l-55 455q-16 143 -16 163h-5q0 -8 -40 -157l-142 -461h-297l-137 461q-41 139 -41 157h-4v-24q-2 -25 -5 -66t-9 -71l-64 -457h-274l155 1077h303l191 -610l45 -174h4z" />
    <glyph glyph-name="n.sc" horiz-adv-x="1296" 
d="M412 0h-277v1077h311l316 -436q88 -122 127 -199h4v13q-8 48 -8 174v448h276v-1077h-280l-349 481q-79 110 -99 144q-21 34 -23 37h-4v-11q4 -16 4 -61l2 -94v-496z" />
    <glyph glyph-name="o.sc" horiz-adv-x="1347" 
d="M677 227q136 0 203 88q66 87 66 225t-65 225q-66 87 -203 87t-205 -86q-67 -86 -67 -223t67 -227q68 -89 204 -89zM675 1098q281 0 441 -160t160 -396t-156 -398t-441 -162q-286 0 -446 160q-159 160 -159 394q0 232 159 397q160 165 442 165z" />
    <glyph glyph-name="p.sc" horiz-adv-x="1077" 
d="M442 565h88q94 0 139 35q44 35 44 113q0 139 -174 139h-97v-287zM131 0v1077h432q207 0 331 -91t124 -274q0 -182 -128 -276t-358 -94h-90v-342h-311z" />
    <glyph glyph-name="q.sc" horiz-adv-x="1347" 
d="M403 542q0 -138 68 -228t207 -91q139 0 205 87q65 88 65 228t-66 227q-67 87 -205 87t-206 -86t-68 -224zM1020 -309q-148 -1 -268 67t-248 246q-205 44 -318 192t-112 343q0 229 159 394q160 165 442 165q281 0 441 -160t160 -395q0 -195 -106 -341t-306 -198
q43 -52 81 -72q39 -20 103 -20t123 43l95 -199q-98 -65 -246 -65z" />
    <glyph glyph-name="r.sc" horiz-adv-x="1122" 
d="M446 606h107q150 0 149 123q0 123 -161 123h-95v-246zM135 0v1077h424q219 0 336 -83t117 -244q0 -225 -236 -293v-2q76 -49 148 -174l174 -281h-330l-188 307q-39 59 -63 77t-56 17h-15v-401h-311z" />
    <glyph glyph-name="s.sc" horiz-adv-x="917" 
d="M848 326q0 -166 -112 -255t-330 -89q-219 0 -353 96l117 217q115 -74 229 -74q150 0 150 76q0 41 -36 60q-36 20 -103 46t-107 46q-117 53 -173 127t-56 212t112 224t304 86t323 -86l-111 -215q-94 61 -215 61t-120 -74q0 -39 32 -58q32 -20 94 -43t85 -32
q270 -109 270 -325z" />
    <glyph glyph-name="t.sc" horiz-adv-x="1003" 
d="M344 0v829h-313v248h942v-248h-316v-829h-313z" />
    <glyph glyph-name="u.sc" horiz-adv-x="1253" 
d="M639 -18q-512 0 -512 471v624h311v-602q0 -135 46 -190t156 -55t156 56q44 56 44 181v610h286v-592q0 -247 -124 -375t-363 -128z" />
    <glyph glyph-name="v.sc" horiz-adv-x="1202" 
d="M461 0l-436 1077h340l202 -573l54 -174h4q18 81 49 174l194 573h308l-420 -1077h-295z" />
    <glyph glyph-name="w.sc" horiz-adv-x="1609" 
d="M1122 422h4q25 121 50 209l114 446h291l-307 -1077h-287l-127 508l-31 133q-6 23 -14 68h-4q-23 -129 -47 -201l-143 -508h-287l-305 1077h329l113 -450l45 -205h4l6 33q23 118 41 186l109 436h295l106 -436q45 -193 45 -219z" />
    <glyph glyph-name="x.sc" horiz-adv-x="1124" 
d="M35 0l358 551l-340 526h350l179 -291l159 291h310l-326 -522l358 -555h-344l-204 328l-191 -328h-309z" />
    <glyph glyph-name="y.sc" horiz-adv-x="1075" 
d="M387 0v406l-371 671h344l197 -401h4l193 401h305l-357 -671v-406h-315z" />
    <glyph glyph-name="z.sc" horiz-adv-x="1007" 
d="M84 0v195l461 639h-447v243h824v-194l-463 -639h477v-244h-852z" />
    <glyph glyph-name="exclamdown.sc" horiz-adv-x="567" 
d="M115 0l49 676h239l50 -676h-338zM284 762q-77 0 -126 49t-49 119t48 118t126 48t129 -49t51 -118t-51 -118t-128 -49z" />
    <glyph glyph-name="mu.sc" horiz-adv-x="1554" 
d="M772 293q-11 0 49 174l203 610h303l152 -1077h-316l-55 455q-16 143 -16 163h-5q0 -8 -40 -157l-142 -461h-297l-137 461q-41 139 -41 157h-4v-24q-2 -25 -5 -66t-9 -71l-64 -457h-274l155 1077h303l191 -610l45 -174h4z" />
    <glyph glyph-name="questiondown.sc" horiz-adv-x="745" 
d="M437 764q-77 0 -126 48t-49 118t49 119t126 49t127 -50t50 -119t-50 -117t-127 -48zM416 -20q-186 0 -280 78q-93 79 -93 215t177 250q34 22 49 34q44 35 44 92v27h248v-58q0 -127 -108 -200q-90 -57 -91 -119q0 -84 117 -84q90 0 148 39l98 -205q-123 -69 -309 -69z" />
    <glyph glyph-name="germandbls.sc" horiz-adv-x="1828" 
d="M1759 326q-1 -166 -113 -255t-332 -89t-349 96l116 217q115 -74 230 -74q150 0 149 76q0 41 -36 60q-36 20 -103 46t-107 46q-117 53 -173 127t-56 212t112 224t304 86t323 -86l-110 -215q-94 61 -215 61t-121 -74q0 -47 72 -78q36 -16 76 -31q41 -15 63 -24
q270 -109 270 -325zM848 326q0 -166 -112 -255t-330 -89q-219 0 -353 96l117 217q115 -74 229 -74q150 0 150 76q0 41 -36 60q-36 20 -103 46t-107 46q-117 53 -173 127t-56 212t112 224t304 86t323 -86l-111 -215q-94 61 -215 61t-120 -74q0 -39 32 -58q32 -20 94 -43
t85 -32q270 -109 270 -325z" />
    <glyph glyph-name="agrave.sc" horiz-adv-x="1234" 
d="M508 1171l-291 283h393l164 -283h-266zM27 0l434 1077h297l448 -1077h-334l-61 168h-416l-59 -168h-309zM469 389h264l-69 195q-61 180 -62 192h-4l-8 -26q-9 -42 -51 -166z" />
    <glyph glyph-name="aacute.sc" horiz-adv-x="1234" 
d="M27 0l434 1077h297l448 -1077h-334l-61 168h-416l-59 -168h-309zM469 389h264l-69 195q-61 180 -62 192h-4l-8 -26q-9 -42 -51 -166zM459 1171l164 283h393l-291 -283h-266z" />
    <glyph glyph-name="acircumflex.sc" horiz-adv-x="1234" 
d="M27 0l434 1077h297l448 -1077h-334l-61 168h-416l-59 -168h-309zM469 389h264l-69 195q-61 180 -62 192h-4l-8 -26q-9 -42 -51 -166zM233 1174l265 331h237l260 -331h-260l-121 122l-120 -122h-261z" />
    <glyph glyph-name="atilde.sc" horiz-adv-x="1234" 
d="M741 1184q-73 0 -143 35t-114 35t-105 -62l-139 119q36 65 100 115t140 50t146 -34q72 -35 116 -35t108 63l139 -120q-105 -166 -248 -166zM27 0l434 1077h297l448 -1077h-334l-61 168h-416l-59 -168h-309zM469 389h264l-69 195q-61 180 -62 192h-4l-8 -26
q-9 -42 -51 -166z" />
    <glyph glyph-name="adieresis.sc" horiz-adv-x="1234" 
d="M27 0l434 1077h297l448 -1077h-334l-61 168h-416l-59 -168h-309zM469 389h264l-69 195q-61 180 -62 192h-4l-8 -26q-9 -42 -51 -166zM838 1176q-72 0 -119 46t-47 111t47 113t119 47q72 0 118 -46t45 -113q1 -66 -45 -112t-118 -46zM391 1176q-72 0 -118 46t-46 112
t46 113q46 46 118 46t119 -47t47 -113q0 -65 -47 -111t-119 -46z" />
    <glyph glyph-name="aring.sc" horiz-adv-x="1234" 
d="M27 0l434 1077h297l448 -1077h-334l-61 168h-416l-59 -168h-309zM469 389h264l-69 195q-61 180 -62 192h-4l-8 -26q-9 -42 -51 -166zM614 1288q41 0 67 30t26 72t-26 70t-67 29q-40 0 -66 -29q-26 -28 -26 -70t26 -72t66 -30zM614 1165q-94 -1 -164 63t-69 160
q0 96 70 162q69 64 163 64t164 -65t70 -161t-70 -159q-70 -64 -164 -64z" />
    <glyph glyph-name="ae.sc" horiz-adv-x="1523" 
d="M711 395v361l-199 -361h199zM1423 1077v-243h-409v-177h364v-219h-364v-194h422v-244h-725v172h-320l-96 -172h-336l641 1077h823z" />
    <glyph glyph-name="ccedilla.sc" horiz-adv-x="1077" 
d="M815 -289q-1 -78 -73 -133t-188 -55t-185 33l39 133q49 -23 104 -23q96 0 96 68q0 86 -145 73l67 185q-223 36 -340 188q-116 152 -116 374t156 382q156 162 446 162q217 0 344 -92l-129 -224q-98 62 -220 62t-194 -79q-71 -79 -71 -220t69 -226q70 -83 204 -83t234 75
l117 -223q-131 -96 -330 -104l-32 -90q68 -14 108 -60t39 -123z" />
    <glyph glyph-name="egrave.sc" horiz-adv-x="978" 
d="M135 0v1077h727v-239h-422v-181h377v-219h-377v-196h434v-242h-739zM393 1171l-291 283h394l163 -283h-266z" />
    <glyph glyph-name="eacute.sc" horiz-adv-x="978" 
d="M135 0v1077h727v-239h-422v-181h377v-219h-377v-196h434v-242h-739zM344 1171l164 283h393l-291 -283h-266z" />
    <glyph glyph-name="ecircumflex.sc" horiz-adv-x="978" 
d="M135 0v1077h727v-239h-422v-181h377v-219h-377v-196h434v-242h-739zM121 1174l264 331h238l260 -331h-260l-121 122l-121 -122h-260z" />
    <glyph glyph-name="edieresis.sc" horiz-adv-x="978" 
d="M135 0v1077h727v-239h-422v-181h377v-219h-377v-196h434v-242h-739zM725 1176q-72 0 -119 46t-47 111t47 113t118 47q71 0 118 -46t47 -113q0 -66 -46 -112t-118 -46zM279 1176q-72 0 -118 46t-46 112t47 113q47 46 118 46q72 0 118 -47t46 -113q0 -65 -46 -111t-119 -46
z" />
    <glyph glyph-name="igrave.sc" horiz-adv-x="602" 
d="M193 1171l-291 283h393l164 -283h-266zM145 0v1077h312v-1077h-312z" />
    <glyph glyph-name="iacute.sc" horiz-adv-x="602" 
d="M145 0v1077h312v-1077h-312zM145 1171l164 283h393l-290 -283h-267z" />
    <glyph glyph-name="icircumflex.sc" horiz-adv-x="602" 
d="M145 0v1077h312v-1077h-312zM-80 1174l264 331h238l260 -331h-260l-121 122l-121 -122h-260z" />
    <glyph glyph-name="idieresis.sc" horiz-adv-x="602" 
d="M145 0v1077h312v-1077h-312zM524 1176q-72 0 -118 46t-48 111q0 65 48 113t118 47q70 0 117 -46t47 -113q0 -66 -46 -112t-118 -46zM78 1176q-72 0 -118 46t-46 112t47 113q47 46 118 46t118 -47t47 -113q0 -65 -47 -111t-119 -46z" />
    <glyph glyph-name="eth.sc" horiz-adv-x="1251" 
d="M446 244h99q305 0 305 301q0 155 -75 223t-240 68h-89v-195h197v-217h-197v-180zM135 0v424h-104v217h104v436h395q322 0 485 -140t163 -385q0 -244 -168 -398t-490 -154h-385z" />
    <glyph glyph-name="ntilde.sc" horiz-adv-x="1296" 
d="M774 1184q-72 0 -142 35t-115 35q-44 0 -105 -62l-140 119q35 65 100 115q64 50 140 50t146 -34q70 -35 116 -35q45 0 109 63l139 -120q-105 -166 -248 -166zM412 0h-277v1077h311l316 -436q88 -122 127 -199h4v13q-8 48 -8 174v448h276v-1077h-280l-349 481
q-79 110 -99 144q-21 34 -23 37h-4v-11q4 -16 4 -61l2 -94v-496z" />
    <glyph glyph-name="ograve.sc" horiz-adv-x="1347" 
d="M565 1171l-291 283h394l163 -283h-266zM677 227q136 0 203 88q66 87 66 225t-65 225q-66 87 -203 87t-205 -86q-67 -86 -67 -223t67 -227q68 -89 204 -89zM675 1098q281 0 441 -160t160 -396t-156 -398t-441 -162q-286 0 -446 160q-159 160 -159 394q0 232 159 397
q160 165 442 165z" />
    <glyph glyph-name="oacute.sc" horiz-adv-x="1347" 
d="M677 227q136 0 203 88q66 87 66 225t-65 225q-66 87 -203 87t-205 -86q-67 -86 -67 -223t67 -227q68 -89 204 -89zM675 1098q281 0 441 -160t160 -396t-156 -398t-441 -162q-286 0 -446 160q-159 160 -159 394q0 232 159 397q160 165 442 165zM518 1171l164 283h393
l-291 -283h-266z" />
    <glyph glyph-name="ocircumflex.sc" horiz-adv-x="1347" 
d="M677 227q136 0 203 88q66 87 66 225t-65 225q-66 87 -203 87t-205 -86q-67 -86 -67 -223t67 -227q68 -89 204 -89zM675 1098q281 0 441 -160t160 -396t-156 -398t-441 -162q-286 0 -446 160q-159 160 -159 394q0 232 159 397q160 165 442 165zM293 1174l264 331h238
l260 -331h-260l-121 122l-121 -122h-260z" />
    <glyph glyph-name="otilde.sc" horiz-adv-x="1347" 
d="M801 1184q-72 0 -143 35q-70 35 -114 35t-106 -62l-139 119q35 65 99 115t141 50t147 -34q70 -35 115 -35t108 63l140 -120q-105 -166 -248 -166zM677 227q136 0 203 88q66 87 66 225t-65 225q-66 87 -203 87t-205 -86q-67 -86 -67 -223t67 -227q68 -89 204 -89z
M675 1098q281 0 441 -160t160 -396t-156 -398t-441 -162q-286 0 -446 160q-159 160 -159 394q0 232 159 397q160 165 442 165z" />
    <glyph glyph-name="odieresis.sc" horiz-adv-x="1347" 
d="M677 227q136 0 203 88q66 87 66 225t-65 225q-66 87 -203 87t-205 -86q-67 -86 -67 -223t67 -227q68 -89 204 -89zM675 1098q281 0 441 -160t160 -396t-156 -398t-441 -162q-286 0 -446 160q-159 160 -159 394q0 232 159 397q160 165 442 165zM897 1176q-72 0 -119 46
t-47 111t47 113t118 47q71 0 118 -46t47 -113q0 -66 -46 -112t-118 -46zM451 1176q-72 0 -118 46t-46 112t47 113q47 46 118 46q72 0 118 -47t46 -113q0 -65 -46 -111t-119 -46z" />
    <glyph glyph-name="oslash.sc" horiz-adv-x="1347" 
d="M406 543q0 -82 24 -150l344 445q-53 14 -96 14q-136 0 -204 -86t-68 -223zM674 227q139 0 206 88t66 224q0 82 -24 149l-347 -446q38 -15 99 -15zM674 1098q141 0 258 -45l112 147l189 -131l-109 -139q152 -158 152 -392t-156 -395q-156 -162 -442 -161q-137 0 -260 43
l-113 -156l-190 129l114 147q-155 155 -155 389t159 399q160 165 441 165z" />
    <glyph glyph-name="ugrave.sc" horiz-adv-x="1253" 
d="M639 -18q-512 0 -512 471v624h311v-602q0 -135 46 -190t156 -55t156 56q44 56 44 181v610h286v-592q0 -247 -124 -375t-363 -128zM520 1171l-291 283h394l163 -283h-266z" />
    <glyph glyph-name="uacute.sc" horiz-adv-x="1253" 
d="M639 -18q-512 0 -512 471v624h311v-602q0 -135 46 -190t156 -55t156 56q44 56 44 181v610h286v-592q0 -247 -124 -375t-363 -128zM471 1171l164 283h393l-291 -283h-266z" />
    <glyph glyph-name="ucircumflex.sc" horiz-adv-x="1253" 
d="M639 -18q-512 0 -512 471v624h311v-602q0 -135 46 -190t156 -55t156 56q44 56 44 181v610h286v-592q0 -247 -124 -375t-363 -128zM246 1174l264 331h238l260 -331h-260l-121 122l-121 -122h-260z" />
    <glyph glyph-name="udieresis.sc" horiz-adv-x="1253" 
d="M639 -18q-512 0 -512 471v624h311v-602q0 -135 46 -190t156 -55t156 56q44 56 44 181v610h286v-592q0 -247 -124 -375t-363 -128zM850 1176q-72 0 -119 46t-47 111t47 113t119 47q72 0 118 -46t46 -113q0 -66 -46 -112t-118 -46zM403 1176q-71 0 -117 46t-46 112t46 113
q46 46 118 46t118 -47q47 -47 47 -113q0 -65 -47 -111t-119 -46z" />
    <glyph glyph-name="yacute.sc" horiz-adv-x="1075" 
d="M387 0v406l-371 671h344l197 -401h4l193 401h305l-357 -671v-406h-315zM389 1171l164 283h393l-291 -283h-266z" />
    <glyph glyph-name="thorn.sc" horiz-adv-x="1081" 
d="M442 414h95q94 0 138 35t44 112q0 139 -174 139h-103v-286zM131 0v1077h311v-151h127q207 0 331 -91t124 -275t-128 -276q-128 -93 -357 -94h-97v-190h-311z" />
    <glyph glyph-name="ydieresis.sc" horiz-adv-x="1075" 
d="M387 0v406l-371 671h344l197 -401h4l193 401h305l-357 -671v-406h-315zM768 1176q-72 0 -119 46t-47 111t47 113t119 47q72 0 118 -46t46 -113q0 -66 -46 -112t-118 -46zM322 1176q-72 0 -118 46t-46 112t46 113q46 46 118 46t118 -47t47 -113q-1 -65 -47 -111t-118 -46z
" />
    <glyph glyph-name="dotlessi.sc" horiz-adv-x="602" 
d="M145 0v1077h312v-1077h-312z" />
    <glyph glyph-name="lslash.sc" horiz-adv-x="964" 
d="M164 0v328l-82 -54l-105 166l187 123v514h311v-313l164 110l106 -165l-270 -181v-284h424v-244h-735z" />
    <glyph glyph-name="oe.sc" horiz-adv-x="1654" 
d="M676 227q86 0 155 33v555q-53 37 -151 37q-139 0 -208 -86t-69 -223t69 -227t204 -89zM680 -18q-287 0 -448 160q-160 160 -160 394q0 232 160 397q161 165 442 165q111 0 184 -21h682v-243h-410v-177h363v-219h-363v-194h422v-244h-698q-84 -18 -174 -18z" />
    <glyph glyph-name="scaron.sc" horiz-adv-x="917" 
d="M848 326q0 -166 -112 -255t-330 -89q-219 0 -353 96l117 217q115 -74 229 -74q150 0 150 76q0 41 -36 60q-36 20 -103 46t-107 46q-117 53 -173 127t-56 212t112 224t304 86t323 -86l-111 -215q-94 61 -215 61t-120 -74q0 -39 32 -58q32 -20 94 -43t85 -32
q270 -109 270 -325zM346 1171l-260 330h260l121 -121l121 121h260l-264 -330h-238z" />
    <glyph glyph-name="zcaron.sc" horiz-adv-x="1007" 
d="M84 0v195l461 639h-447v243h824v-194l-463 -639h477v-244h-852zM389 1171l-260 330h260l121 -121l121 121h260l-264 -330h-238z" />
    <glyph glyph-name="pi.sc" horiz-adv-x="1292" 
d="M135 0v1077h1022v-1077h-311v829h-400v-829h-311z" />
    <glyph glyph-name="fi.sc" horiz-adv-x="1548" 
d="M1075 0v1077h311v-1077h-311zM135 0v1077h709v-243h-398v-211h357v-230h-357v-393h-311z" />
    <glyph glyph-name="fl.sc" horiz-adv-x="1871" 
d="M1071 0v1077h311v-833h426v-244h-737zM135 0v1077h709v-243h-398v-211h357v-230h-357v-393h-311z" />
    <glyph glyph-name="slash.ss01" horiz-adv-x="862" 
d="M-61 -231l833 1706h285l-834 -1706h-284z" />
    <glyph glyph-name="pi.ss01" horiz-adv-x="1490" 
d="M301 -182v903h-223v283h1319v-283h-258v-281q0 -170 65 -170q57 0 125 33l101 -219q-109 -106 -274 -106t-242 88t-76 247v408h-230v-903h-307z" />
    <glyph glyph-name="parenleft.subs" horiz-adv-x="505" 
d="M74 340q0 152 60 268t145 180h229q-78 -59 -135 -181t-57 -265t56 -266t136 -189h-229q-205 170 -205 453z" />
    <glyph glyph-name="parenright.subs" horiz-adv-x="505" 
d="M190 337q0 146 -56 268t-136 183h229q205 -162 205 -446t-205 -455h-229q80 66 136 185t56 265z" />
    <glyph glyph-name="plus.subs" horiz-adv-x="671" 
d="M238 109v145h-162v176h162v145h194v-145h166v-176h-166v-145h-194z" />
    <glyph glyph-name="minus.subs" horiz-adv-x="620" 
d="M98 254v172h424v-172h-424z" />
    <glyph glyph-name="zero.tf" 
d="M578 221q96 0 137 115t41 346t-41 346t-137 115t-136 -114t-41 -347q1 -233 41 -347t136 -114zM580 -25q-306 0 -439 303q-73 170 -73 432t112 460q58 102 160 160t223 58q315 1 452 -302q73 -166 74 -380t-49 -368t-168 -258t-292 -105z" />
    <glyph glyph-name="one.tf" 
d="M160 0v250h301v844l-277 -82l-65 243l413 107h240v-1112h299v-250h-911z" />
    <glyph glyph-name="two.tf" 
d="M1040 248v-248h-970v166q129 116 210 192t177 186q192 220 192 408q0 90 -47 138t-125 49q-145 0 -278 -125l-146 196q186 178 461 179q227 0 349 -111q122 -110 122 -296t-125 -366t-348 -376l10 2l137 6h381z" />
    <glyph glyph-name="three.tf" 
d="M403 -25q-178 0 -305 41l52 244q96 -37 238 -37t219 48t77 141q0 190 -387 190v213q156 4 254 57t98 138q0 63 -52 97t-130 34t-151 -30t-113 -67l-121 199q63 57 181 101t267 45q205 0 323 -85q118 -84 118 -218t-87 -215t-208 -115v-4q133 -14 237 -104t105 -234
q0 -197 -170 -318t-445 -121z" />
    <glyph glyph-name="four.tf" 
d="M471 498h172v465h-4l-311 -471q23 6 143 6zM637 0v260h-612v203l634 901h287v-866h166v-238h-166v-260h-309z" />
    <glyph glyph-name="five.tf" 
d="M385 -25q-180 0 -266 29l47 246q70 -27 210 -27t224 53t84 164q0 209 -342 209q-117 0 -170 -12l43 727h754v-248h-473l-17 -231q239 -7 389 -113t150 -324t-173 -346t-460 -127z" />
    <glyph glyph-name="six.tf" 
d="M393 541q-1 -164 55 -248t139 -84t126 56t43 147q0 211 -170 211q-111 0 -193 -72v-10zM592 -25q-262 0 -392 172t-130 435q0 366 231 586t631 221l65 -252q-502 -12 -583 -359q102 76 266 76t286 -115t122 -317t-143 -324q-142 -123 -353 -123z" />
    <glyph glyph-name="seven.tf" 
d="M82 1106v258h981v-162l-623 -1257l-272 94l532 1067h-618z" />
    <glyph glyph-name="eight.tf" 
d="M741 1032q0 55 -43 93q-44 38 -114 38t-114 -37t-44 -92q0 -98 164 -190q74 51 112 92t39 96zM575 203q86 0 138 42q51 42 51 106q0 65 -54 115t-157 105q-168 -104 -168 -219q0 -68 52 -108t138 -41zM572 -25q-232 1 -368 99t-136 270q0 209 270 352q-229 125 -229 322
q0 164 136 267t344 103t337 -90q129 -92 129 -262t-250 -309q131 -68 207 -155t75 -218q0 -176 -141 -278q-142 -102 -374 -101z" />
    <glyph glyph-name="nine.tf" 
d="M571 741q104 0 187 72v10q0 162 -53 247t-135 85t-125 -56q-42 -56 -42 -147q0 -211 168 -211zM496 510q-184 0 -305 115q-119 115 -119 317t140 324q140 123 349 123q266 0 393 -170t127 -437q-1 -377 -217 -598t-626 -221l-66 252q217 6 371 93t196 280
q-104 -78 -243 -78z" />
    <glyph glyph-name="zero.tosf" 
d="M582 221q84 0 131 71t47 206t-48 210q-48 74 -133 74t-133 -70q-47 -71 -47 -206q-1 -135 49 -210t134 -75zM578 -25q-250 0 -381 156t-131 368q0 213 133 371t384 158t381 -152t130 -367q0 -214 -133 -374t-383 -160z" />
    <glyph glyph-name="one.tosf" 
d="M166 0v246h299v489l-260 -78l-64 244l396 103h239v-758h299v-246h-909z" />
    <glyph glyph-name="two.tosf" 
d="M80 0v143q70 45 239 164t235 193q65 74 77 106q12 33 12 58q0 120 -146 120t-282 -106l-141 190q199 162 461 162q205 0 323 -75t119 -222t-105 -257t-307 -238q74 8 137 8h355v-246h-977z" />
    <glyph glyph-name="three.tosf" 
d="M381 -385q-188 0 -293 31l53 243q83 -29 231 -29t230 52q82 51 82 145q0 186 -403 187v215q131 6 249 60t119 151q0 53 -43 82q-43 28 -118 28q-74 0 -150 -28t-123 -66l-143 195q182 147 452 147q199 0 323 -85t124 -219t-86 -214t-199 -111v-4q132 -14 232 -100
t100 -234q0 -205 -177 -325t-460 -121z" />
    <glyph glyph-name="four.tosf" 
d="M647 236v389h-4l-285 -389h289zM641 -362v362h-612v195l645 809h276v-768h170v-236h-170v-362h-309z" />
    <glyph glyph-name="five.tosf" 
d="M379 -385q-160 0 -260 27l49 245q16 -8 86 -17t123 -9q129 0 213 59t84 170t-102 164t-220 53t-186 -14l45 711h768v-240h-487l-17 -217q229 -8 381 -124t152 -330t-171 -346t-458 -132z" />
    <glyph glyph-name="six.tosf" 
d="M393 528q1 -137 51 -228t140 -91t136 54t46 143q0 203 -178 202q-117 0 -195 -63v-17zM1096 422q0 -200 -146 -324q-146 -123 -344 -123t-319 86q-121 87 -170 219t-49 302q0 360 239 583q240 223 641 224l68 -248q-227 0 -396 -90t-208 -281q98 72 270 72t293 -110
t121 -310z" />
    <glyph glyph-name="seven.tosf" 
d="M90 752v252h985v-160l-694 -1258l-256 127l580 1039h-615z" />
    <glyph glyph-name="eight.tosf" 
d="M735 1026q0 59 -41 98q-40 39 -108 39t-112 -37t-44 -92q0 -94 160 -190q145 100 145 182zM389 354q-1 -68 51 -110t137 -41q85 0 134 43t49 104q0 60 -49 110t-158 109q-164 -100 -164 -215zM1081 356q0 -180 -139 -280q-140 -100 -370 -101t-364 99t-134 270
q0 211 264 352q-223 125 -223 322q0 164 133 267t340 103t335 -92q128 -94 128 -263t-244 -306q274 -141 274 -371z" />
    <glyph glyph-name="nine.tosf" 
d="M377 594q-1 -197 197 -197q102 0 178 64v14q0 139 -47 229t-152 91q-80 1 -128 -53t-48 -148zM462 166q-173 0 -295 108t-122 310q1 200 149 322t367 122q387 0 490 -376q29 -105 28 -230q1 -369 -237 -584t-666 -215l-65 246q222 4 392 82q91 41 153 115t83 174
q-104 -74 -277 -74z" />
    <glyph glyph-name="commaaccent" horiz-adv-x="1024" 
d="M509 -80q65 0 113 -41t48 -108q0 -136 -125 -242h-152q105 86 14 181q-45 46 -45 95t41 82t106 33z" />
    <glyph glyph-name="f_b" horiz-adv-x="1847" 
d="M1249 217q213 -1 213 283t-188 284q-94 0 -150 -69v-479q45 -19 125 -19zM1792 510q0 -256 -152 -396t-401 -139q-250 0 -426 80v1172q-51 18 -151 18q-172 0 -173 -180v-61h201v-230h-201v-774h-311v774h-145v230h145v88q0 192 128 300t386 108t432 -64v-512
q104 104 244 104q192 0 308 -131t116 -387z" />
    <glyph glyph-name="f_f_b" horiz-adv-x="2463" 
d="M492 1004h303v88q0 51 12 98q-51 43 -150 43q-166 0 -165 -178v-51zM1866 217q211 -1 211 283t-187 284q-94 0 -149 -69v-479q41 -19 125 -19zM1852 -25q-252 0 -422 80v1172q-55 18 -152 18q-172 0 -172 -180v-61h205v-230h-205v-774h-311v774h-303v-774h-312v774h-147
v230h147v81q0 186 114 294t312 108t332 -82q128 94 378 94t425 -63v-512q100 104 241 104q193 0 309 -131q115 -131 115 -387t-151 -396t-403 -139z" />
    <glyph glyph-name="f_f_h" horiz-adv-x="2467" 
d="M492 1004h303v88q0 51 12 98q-51 43 -150 43q-166 0 -165 -178v-51zM180 0v774h-147v230h147v81q0 186 114 294t312 108t332 -82q128 94 378 94t425 -63v-547q123 139 295 139t244 -89t71 -241v-698h-311v635q0 71 -27 103t-92 32q-94 0 -180 -108v-662h-311v1227
q-55 18 -152 18q-172 0 -172 -180v-61h205v-230h-205v-774h-311v774h-303v-774h-312z" />
    <glyph glyph-name="f_f_j" horiz-adv-x="1853" 
d="M492 1004h303v86q0 53 12 98q-53 45 -150 45q-166 0 -165 -178v-51zM1366 -479q-121 0 -201 26l54 240q33 -14 91 -14t82 44t23 163v794h-309v-774h-311v774h-303v-774h-312v774h-147v230h147v81q0 186 114 294t314 108t334 -80q124 92 332 92t366 -86l-104 -227
q-104 59 -236 59q-195 0 -194 -180v-61h623v-1055q-1 -428 -363 -428z" />
    <glyph glyph-name="f_f_k" horiz-adv-x="2402" 
d="M492 1004h303v88q0 51 12 98q-51 43 -150 43q-166 0 -165 -178v-51zM1741 0h-311v1227q-55 18 -152 18q-172 0 -172 -180v-61h205v-230h-205v-774h-311v774h-303v-774h-312v774h-147v230h147v81q0 186 114 294t312 108t332 -82q128 94 378 94t425 -63v-818l301 386h336
l-359 -451l365 -553h-359l-284 455v-455z" />
    <glyph glyph-name="f_h" horiz-adv-x="1851" 
d="M178 0v774h-145v230h145v88q0 192 128 300t386 108t432 -64v-547q124 139 296 139t244 -90t73 -240v-698h-314v635q-1 71 -27 103t-91 32q-88 0 -181 -108v-662h-311v1227q-51 18 -151 18q-172 0 -173 -180v-61h201v-230h-201v-774h-311z" />
    <glyph glyph-name="f_j" horiz-adv-x="1236" 
d="M750 -479q-123 0 -203 26l53 240q34 -14 92 -14t82 44t25 163v794h-310v-774h-311v774h-145v230h145v86q0 194 124 302t344 108t378 -87l-104 -227q-104 59 -234 59q-197 0 -197 -180v-61h625v-1055q1 -428 -364 -428z" />
    <glyph glyph-name="f_k" horiz-adv-x="1785" 
d="M1124 0h-311v1227q-51 18 -151 18q-172 0 -173 -180v-61h201v-230h-201v-774h-311v774h-145v230h145v88q0 192 128 300t386 108t432 -64v-818l301 386h336l-356 -451l362 -553h-358l-285 455v-455z" />
    <glyph glyph-name="afii10071.sc" horiz-adv-x="978" 
d="M135 1077h727v-239h-422v-181h377v-219h-377v-196h434v-242h-739v1077zM725 1176q-72 0 -119 46t-47 111t47 113t118 47q71 0 118 -46t47 -113q0 -66 -46 -112t-118 -46zM279 1176q-72 0 -118 46t-46 112t47 113q47 46 118 46q72 0 118 -47t46 -113q0 -65 -46 -111
t-119 -46z" />
    <glyph glyph-name="afii10065.sc" horiz-adv-x="1234" 
d="M461 1077h297l448 -1077h-334l-61 168h-416l-59 -168h-309zM602 776h-4l-6 -18l-12 -43q-6 -27 -19 -62l-92 -264h264l-94 264q-12 35 -16 53l-21 66v4z" />
    <glyph glyph-name="afii10066.sc" horiz-adv-x="1083" 
d="M446 221h86q184 0 185 125q0 63 -42 90t-132 27h-97v-242zM135 1077h797v-243h-486v-144h121q311 0 420 -188q35 -66 35 -154q0 -176 -128 -262t-359 -86h-400v1077z" />
    <glyph glyph-name="afii10067.sc" horiz-adv-x="1079" 
d="M440 643h86q80 0 115 27t35 86q0 106 -144 106h-92v-219zM440 221h109q88 0 126 25t38 88q0 117 -154 117h-119v-230zM135 1077h428q188 0 283 -57q55 -31 90 -84q35 -59 35 -133q0 -199 -201 -246v-4q102 -13 170 -76q76 -61 76 -193q0 -68 -35 -126q-79 -114 -240 -144
q-80 -14 -182 -14h-424v1077z" />
    <glyph glyph-name="afii10068.sc" horiz-adv-x="876" 
d="M135 0v1077h709v-248h-398v-829h-311z" />
    <glyph glyph-name="afii10069.sc" horiz-adv-x="1253" 
d="M780 242v589h-245l-58 -368q-25 -160 -74 -221h377zM1081 1077v-835h105l-39 -541h-193l-28 299h-633l-21 -299h-192l-53 541h82q66 59 96 266l84 569h792z" />
    <glyph glyph-name="afii10070.sc" horiz-adv-x="978" 
d="M135 0v1077h727v-239h-422v-181h377v-219h-377v-196h434v-242h-739z" />
    <glyph glyph-name="afii10072.sc" horiz-adv-x="1724" 
d="M45 225h16q27 0 44 7q33 14 85 92q12 18 75 126t114 148l-350 479h331l314 -434h33v434h311v-434h33l311 434h334l-353 -479q55 -45 129 -172t107 -162q18 -25 41 -31q14 -8 43 -8h16l-2 -225h-178q-96 0 -153 59q-27 27 -60 74l-59 105q-75 124 -113 161q-37 37 -80 37
h-16v-436h-311v436h-19q-18 0 -43 -10q-27 -16 -48 -37t-99 -151l-64 -105q-54 -89 -123 -119q-31 -14 -86 -14h-180v225z" />
    <glyph glyph-name="afii10073.sc" horiz-adv-x="960" 
d="M416 217q180 0 180 113q0 121 -160 121h-137v192h92q166 0 166 119q0 51 -35 81t-98 29q-119 0 -240 -77l-114 202q150 100 360 101q66 0 150 -18q173 -36 237 -140q37 -55 37 -133q0 -197 -201 -250v-4q106 -18 175 -81t69 -162q0 -100 -45 -162t-106 -96
q-126 -70 -348 -70q-223 0 -359 104l115 215q113 -84 262 -84z" />
    <glyph glyph-name="afii10074.sc" horiz-adv-x="1296" 
d="M135 0v1077h277v-467l-4 -123q-4 -37 -5 -45v-18h5l14 25q20 36 113 174l317 454h309v-1077h-276v514l4 141l2 25h-4q-1 -2 -15 -24t-43 -64t-63 -94l-350 -498h-281z" />
    <glyph glyph-name="afii10075.sc" horiz-adv-x="1296" 
d="M632 1145q-154 0 -239 76q-55 43 -82 98q-35 59 -41 141h252q6 -121 111 -121q98 0 110 121h250q-12 -156 -121 -239q-39 -31 -112 -58q-61 -18 -128 -18zM135 0v1077h277v-467l-4 -123q-4 -37 -5 -45v-18h5l14 25q20 36 113 174l317 454h309v-1077h-276v514l4 141l2 25
h-4q-1 -2 -15 -24t-43 -64t-63 -94l-350 -498h-281z" />
    <glyph glyph-name="afii10076.sc" horiz-adv-x="1153" 
d="M135 1077h311v-434h33l312 434h333l-352 -479q55 -45 127 -170t109 -164q18 -25 41 -31q14 -8 43 -8h16l-2 -225h-178q-95 0 -154 59q-27 27 -59 74l-60 105q-37 61 -57 94q-20 32 -56 68t-79 36h-17v-436h-311v1077z" />
    <glyph glyph-name="afii10077.sc" horiz-adv-x="1202" 
d="M1067 1077v-1077h-315v829h-254l-31 -385q-12 -135 -45 -217q-55 -168 -207 -221q-78 -22 -156 -22l-39 227q70 8 109 78t55 221l58 567h825z" />
    <glyph glyph-name="afii10078.sc" horiz-adv-x="1554" 
d="M766 297q0 -4 2 -4h4v4l14 59q4 12 17 56l221 665h303l152 -1077h-316l-55 455q-16 102 -16 163h-5q0 -8 -40 -157l-142 -461h-297l-137 461q-12 24 -18 60q-7 36 -15 51t-8 42v4h-4l-2 -4v-12l-2 -39q0 -14 -4 -51l-70 -512h-274l155 1077h303l191 -610q13 -39 19 -69
t10 -40t6 -28t8 -27v-6z" />
    <glyph glyph-name="afii10079.sc" horiz-adv-x="1306" 
d="M135 0v1077h311v-397h416v397h309v-1077h-309v428h-416v-428h-311z" />
    <glyph glyph-name="afii10080.sc" horiz-adv-x="1347" 
d="M946 540q0 128 -61 220q-72 92 -210 92t-206 -92q-63 -77 -63 -219t63 -219q70 -95 206 -95t210 95q31 41 47 98q14 68 14 120zM1276 543q0 -234 -147 -391q-73 -78 -189 -124t-261 -46q-293 0 -452 165q-78 78 -114 179q-39 96 -39 210t36 206t115 184q68 72 189 125
q118 47 264 47t260 -47t184 -119q72 -72 113 -176t41 -213z" />
    <glyph glyph-name="afii10081.sc" horiz-adv-x="1292" 
d="M135 0v1077h1022v-1077h-311v829h-400v-829h-311z" />
    <glyph glyph-name="afii10082.sc" horiz-adv-x="1081" 
d="M446 565h86q184 0 185 148q0 139 -174 139h-97v-287zM135 1077h432q199 0 324 -88q53 -39 96 -115q35 -74 35 -161q0 -183 -129 -277t-358 -94h-89v-342h-311v1077z" />
    <glyph glyph-name="afii10083.sc" horiz-adv-x="1077" 
d="M664 -18q-280 0 -447 165q-67 71 -105 173t-38 215q0 242 149 393q74 76 190 123t263 47q217 0 344 -92l-129 -224q-98 62 -220 62t-194 -79q-71 -79 -71 -220t69 -226q70 -83 200 -83t238 75l117 -223q-147 -106 -366 -106z" />
    <glyph glyph-name="afii10084.sc" horiz-adv-x="1003" 
d="M344 0v829h-313v248h942v-248h-316v-829h-313z" />
    <glyph glyph-name="afii10085.sc" horiz-adv-x="1095" 
d="M284 -6q-93 0 -151 20l45 240q33 -12 86 -12q92 0 127 75l2 7l-356 753h340l182 -475h2l182 475h340l-340 -723q-98 -200 -182 -270q-102 -90 -277 -90z" />
    <glyph glyph-name="afii10086.sc" horiz-adv-x="1497" 
d="M1120 540q0 108 -62 174t-173 70v-487q115 4 175 69q60 66 60 174zM375 540q0 -108 61 -174t176 -69v485q-115 -4 -176 -68q-61 -66 -61 -174zM592 0v82q-127 4 -221 39q-195 72 -271 244q-34 78 -34 172q1 188 139 317q151 132 387 143v80h311v-80q377 -26 492 -280
q37 -82 37 -174t-39 -178q-78 -171 -267 -240q-98 -41 -223 -43v-82h-311z" />
    <glyph glyph-name="afii10087.sc" horiz-adv-x="1124" 
d="M35 0l358 551l-340 526h350l179 -291l159 291h310l-326 -522l358 -555h-344l-204 328l-191 -328h-309z" />
    <glyph glyph-name="afii10088.sc" horiz-adv-x="1320" 
d="M135 0v1077h311v-835h396v835h311v-835h100l-36 -541h-195l-27 299h-860z" />
    <glyph glyph-name="afii10089.sc" horiz-adv-x="1198" 
d="M86 567v510h311v-444q0 -139 144 -139q33 0 73 14t54 27q29 18 49 36l31 31v475h315v-1077h-315v385q-132 -149 -334 -149q-166 0 -247 87t-81 244z" />
    <glyph glyph-name="afii10090.sc" horiz-adv-x="1947" 
d="M135 0v1077h311v-835h371v835h313v-835h371v835h311v-1077h-1677z" />
    <glyph glyph-name="afii10091.sc" horiz-adv-x="1986" 
d="M135 0v1077h311v-835h371v835h313v-835h371v835h311v-835h107l-37 -541h-194l-29 299h-1524z" />
    <glyph glyph-name="afii10092.sc" horiz-adv-x="1191" 
d="M563 221h86q94 0 138 35t44 112q0 78 -43 110t-131 32h-94v-289zM252 829h-221v248h532v-342h121q197 0 324 -88q129 -100 129 -280q0 -179 -128 -273t-358 -94h-399v829z" />
    <glyph glyph-name="afii10093.sc" horiz-adv-x="1662" 
d="M1212 1077h312v-1077h-312v1077zM446 221h86q184 0 185 148q0 77 -43 109t-131 32h-97v-289zM135 1077h311v-342h121q199 0 324 -88q53 -39 96 -115q35 -74 35 -161q0 -183 -129 -277t-358 -94h-400v1077z" />
    <glyph glyph-name="afii10094.sc" horiz-adv-x="1075" 
d="M446 221h86q184 0 185 148q0 77 -43 109t-131 32h-97v-289zM135 1077h311v-342h121q199 0 324 -88q53 -39 96 -115q35 -74 35 -161q0 -183 -129 -277t-358 -94h-400v1077z" />
    <glyph glyph-name="afii10095.sc" horiz-adv-x="1089" 
d="M408 -18q-221 0 -363 106l119 223q100 -76 250 -75q104 0 172 52t86 144h-420v219h420q-49 193 -258 193q-115 0 -213 -62l-129 224q123 92 348 92q145 0 262 -46q116 -46 188 -123q146 -157 146 -388q0 -109 -40 -213q-80 -209 -304 -301q-117 -45 -264 -45z" />
    <glyph glyph-name="afii10096.sc" horiz-adv-x="1912" 
d="M1509 540q0 128 -61 220q-72 92 -210 92t-204 -87q-65 -87 -65 -226t63 -217q70 -95 205 -95q204 0 258 193q14 68 14 120zM1692 152q-72 -78 -188 -124t-251 -46q-389 0 -542 272q-49 80 -64 174h-201v-428h-311v1077h311v-397h209q37 177 195 297q158 121 389 121
q149 0 263 -47t187 -122q150 -154 150 -387q-1 -232 -147 -390z" />
    <glyph glyph-name="afii10097.sc" horiz-adv-x="1134" 
d="M688 606v246h-92q-164 0 -164 -123t150 -123h106zM59 225h15q43 0 78 32t90 118q47 80 102 88v2q-43 8 -86 34q-91 55 -119 142q-16 37 -16 109q0 328 452 327h424v-1077h-311l2 401h-12q-47 1 -79 -35q-31 -36 -67 -98q-45 -79 -98 -159q-53 -79 -108 -95
q-31 -14 -86 -14h-181v225z" />
    <glyph glyph-name="twosuperior" horiz-adv-x="1060" 
d="M39 0v143q396 262 501 400q52 70 52 123q0 119 -152 118q-115 0 -235 -102l-148 195q172 154 435 153q206 0 320 -75t114 -225t-121 -267t-285 -225q74 8 137 8h349v-246h-967z" />
    <glyph glyph-name="threesuperior" horiz-adv-x="956" 
d="M291 -385q-158 0 -228 16l48 248q57 -20 180 -20t204 51t80 151q0 178 -331 179v223q115 4 206 59t91 142q0 117 -154 116q-117 0 -209 -84l-143 197q170 135 424 135q193 0 298 -85t105 -217t-82 -215t-188 -112v-4q127 -14 222 -101t95 -233q-1 -205 -169 -325
t-449 -121z" />
    <glyph glyph-name="onesuperior" horiz-adv-x="784" 
d="M336 0v735l-240 -69l-63 243l375 95h237v-1004h-309z" />
    <glyph glyph-name="uni00B5" horiz-adv-x="1024" 
 />
    </font>
</defs>
</svg>
